<?xml version="1.0" standalone="no"?>
<!DOCTYPE svg PUBLIC "-//W3C//DTD SVG 1.1//EN" "http://www.w3.org/Graphics/SVG/1.1/DTD/svg11.dtd" >
<svg xmlns="http://www.w3.org/2000/svg">
<metadata></metadata>
<defs>
<font id="casino_handregular" horiz-adv-x="985" >
<font-face units-per-em="2048" ascent="1638" descent="-410" />
<missing-glyph horiz-adv-x="532" />
<glyph unicode="AE" horiz-adv-x="1480" d="M-47.5 69.5q-16.5 31.5 2.5 67.5q326 619 580 1196q4 11 9 18.5t13.5 11.5t13.5 6.5t17.5 2.5h15.5t18 -2l15 -2q66 -13 76 -88q0 -8 1 -18t1 -13q76 -12 368 -30q17 -1 57 -3.5t65 -4.5t62 -7t68 -12q17 -5 28 -16.5t11 -26.5q0 -22 -16 -37t-41 -20q-152 -19 -266 -19 q-24 0 -167.5 3.5t-156.5 -1.5q8 -123 8 -311q59 7 150 15t163.5 16t137.5 22q78 7 78 -43q0 -25 -22 -45t-62 -41q-38 -16 -228 -46.5t-213 -45.5q0 -39 1.5 -68.5t6.5 -74t16.5 -76.5t30 -63t49.5 -47.5t72 -16.5l476 176q15 0 24.5 -13.5t9.5 -35.5q0 -35 -18.5 -63 t-50.5 -40q-45 -14 -111.5 -46.5t-119.5 -62t-116.5 -52.5t-111.5 -23q-58 0 -104 19q-56 31 -97 79t-62.5 102.5t-31.5 104.5t-10 97q-68 -13 -146 -13q-77 0 -122 17q-19 -41 -49 -104t-95.5 -184t-97.5 -155q-32 -28 -84 -22q-29 7 -45.5 38.5zM387 639q62 -8 94 -8 q63 0 111 12v47q-4 75 -4.5 183.5t-3 159t-11.5 52.5q-10 2 -34 -54.5t-71 -182.5t-81 -209z" />
<glyph unicode="ae" horiz-adv-x="1699" d="M53 406q0 59 20 128t57.5 135.5t101 118t141.5 66.5q64 12 120 4.5t94 -23.5l38 -16q2 2 6 5t16.5 11.5t24 15t26.5 14t27.5 10.5t24 1t18.5 -10q19 -19 11.5 -80.5t-24 -119.5t-33.5 -126.5t-17 -101.5q0 -59 48 -99t97 -40q31 0 69 12.5t60 25.5l22 13q-26 117 -26 217 q0 74 31 139.5t79 108.5t106 67.5t114 24.5q105 0 173 -65t68 -168q0 -203 -301 -371q47 -61 89.5 -91t90.5 -30q32 0 60 14.5t45 31.5t39.5 31.5t44.5 14.5q17 0 37 -12t20 -35q0 -40 -46 -83.5t-112 -71t-124 -27.5q-108 0 -189 49.5t-125 120.5q-11 -7 -31.5 -17 t-87.5 -27t-137 -17q-82 0 -156 45t-116 125q-10 -7 -41.5 -30t-43 -30.5t-38.5 -25t-43.5 -24t-40.5 -16t-47 -13t-47 -3.5q-80 0 -136.5 69t-56.5 155zM219 465q0 -41 29.5 -69.5t58.5 -28.5q83 0 159 81t95 232q-61 41 -131 41q-55 0 -97.5 -26t-66 -66.5t-35.5 -82.5 t-12 -81zM1143 555q0 -92 24 -123q33 16 68 40.5t70.5 56.5t58 72.5t22.5 78.5q0 33 -24.5 63.5t-67.5 30.5q-72 0 -111.5 -68.5t-39.5 -150.5z" />
<glyph unicode="OE" horiz-adv-x="1536" d="M55 578q12 496 183 751q10 15 21.5 24.5t24.5 13t21.5 4.5t24.5 1q39 -1 53 -29t10 -67q0 -26 -16 -45l14 2q12 0 31 -11.5t20 -23.5q13 -17 53.5 -70.5t61 -81t51.5 -72.5t54 -83q23 255 40 344q4 8 10.5 20.5t27.5 32.5t42 19q16 -1 37.5 -19t34.5 -36l14 -17 q31 0 136 1t167 1q144 0 224.5 -11t83.5 -46q2 -45 -54 -56q-88 -16 -200 -25.5t-171 -11t-204 -4.5q-16 -69 -24.5 -172t-9.5 -171l-1 -68q92 0 213.5 23t210.5 59q40 15 84 9.5t47 -36.5q6 -44 -49 -83t-137.5 -64t-165.5 -43.5t-142 -26.5l-59 -8q0 -7 0.5 -19t3 -46.5 t7 -66t14.5 -69.5t23 -65.5t34 -46.5t47 -19q181 0 402 137q51 27 83.5 9t32.5 -52q0 -37 -32 -63q-114 -84 -269 -157t-278 -73q-129 0 -193 193q-61 -64 -143.5 -99t-169.5 -34q-67 1 -120.5 26.5t-88 69.5t-58.5 97t-36 117.5t-17 120.5t-4 116zM227 510q-1 -51 9.5 -101 t32.5 -95.5t62.5 -74.5t92.5 -30q103 -1 159.5 75.5t59.5 182.5q1 79 -35 172.5t-81 164t-105.5 165.5t-89.5 153q-64 -159 -83 -284.5t-22 -327.5z" />
<glyph unicode="oe" horiz-adv-x="1411" d="M53 301q0 64 16.5 132.5t48.5 132.5t76 115t104 81.5t126 30.5q42 0 78.5 -16.5t68.5 -44t64.5 -58t81.5 -66t104 -59.5v19.5t4.5 48t13.5 67.5t29 71.5t47.5 68t73.5 48t103 19.5q90 0 168.5 -115.5t78.5 -261.5q0 -107 -57 -165t-160 -58q-12 0 -84 10 q75 -146 195 -174q4 -1 27 -6t35 -9t29.5 -11.5t25.5 -19t8 -26.5q0 -27 -41 -42t-78 -15q-62 0 -128 36.5t-117 91.5t-89.5 115t-54.5 111q-113 51 -201 123q-17 -190 -123.5 -318t-253.5 -128q-102 0 -160.5 81t-58.5 191zM213 350q0 -186 63 -186q91 0 152 84t61 207 q0 69 -31.5 132.5t-78.5 63.5q-49 0 -89 -60t-58.5 -127.5t-18.5 -113.5zM970 525q1 -28 5 -44q50 -41 112 -41q44 0 71.5 25t27.5 78q0 70 -28.5 133t-57.5 63q-40 0 -68 -22.5t-40 -55t-17.5 -70.5t-4.5 -66z" />
<glyph unicode="&#xfb01;" horiz-adv-x="1101" d="M-29 696q0 24 16.5 41t49.5 26.5t63 14t74 8.5q88 11 90 17q-8 43 -8 145q0 94 8.5 190.5t29 195t50.5 173.5t78 121t106 43q62 -1 123.5 -50t104 -118.5t68.5 -146t24 -133.5q-2 -50 -24.5 -80.5t-57.5 -30.5t-54.5 24t-21.5 64q-5 106 -46 196.5t-95 90.5 q-43 0 -77 -94t-50 -225t-16 -265q0 -59 6 -88q161 10 233 25q35 3 62 -12t20 -42q-5 -22 -56 -41t-130 -40t-117 -37q4 -56 16 -212t17.5 -261t7.5 -213q0 -30 -22.5 -54t-49.5 -20q-31 0 -57 27.5t-29 60.5q-15 202 -39 647q-115 -27 -215 -27q-37 0 -59.5 22.5 t-22.5 57.5zM809 440q3 180 18 316q6 13 25.5 21.5t40.5 6.5q27 0 45 -16.5t18 -46.5q-6 -79 -6 -168q0 -260 68 -455q10 -29 -2.5 -47.5t-38.5 -25.5q-25 -12 -49 -6t-33 28q-44 78 -68 191.5t-18 201.5z" />
<glyph unicode="&#xfb02;" horiz-adv-x="1394" d="M-16 692q0 50 46 65.5t144 10.5l90 -4q-8 39 -8 184q0 72 2 134.5t8 139.5t16 139t27.5 122.5t41 101t58.5 64.5t78 22q81 -2 148.5 -75.5t101 -168.5t31.5 -176q-2 -51 -24.5 -82.5t-57.5 -31.5q-67 0 -74 90q-20 260 -106 260q-100 0 -100 -637q0 -71 6 -96 q32 -3 79 2.5t105 20t115 44t104.5 69.5t77 101.5t29.5 134.5v17q0 173 -2 243q0 24 20 44t49 20q63 0 105.5 -44t48.5 -116.5t-33 -165.5q-29 -350 -29 -446q0 -114 4 -201t11.5 -146t18.5 -99.5t25 -62t31 -33t36.5 -12t41.5 0.5t48 28.5t40 28.5q18 3 24.5 -12.5 t6.5 -36.5q0 -49 -54 -110.5t-128 -61.5q-55 0 -97 20t-69.5 60t-46 88.5t-27.5 117t-12.5 132.5t-3.5 147q0 227 6 346q-39 -74 -105 -129.5t-140 -84.5t-140.5 -43t-126.5 -15q6 -82 16.5 -201t16.5 -214.5t8 -202.5q0 -30 -22.5 -54t-49.5 -20q-31 0 -57 27.5t-29 60.5 q-24 335 -39 604q-129 0 -215 12q-69 8 -69 80z" />
<glyph unicode="&#xfb03;" horiz-adv-x="1716" d="M-29 696q0 24 16.5 41t49.5 26.5t63 14t74 8.5q5 1 15.5 2t18.5 2t18 2t16.5 2t12.5 2t8.5 2t0.5 1q-8 43 -8 145q0 94 8.5 190.5t29 195.5t50.5 174.5t78 122.5t106 44q81 -2 151.5 -83t106 -183t33.5 -182q-2 -50 -24.5 -80.5t-57.5 -30.5q-66 0 -73 88 q-3 54 -11 101.5t-21 91t-34.5 69t-48.5 25.5q-43 0 -77 -94t-50 -225t-16 -265q0 -59 6 -88l460 51q-1 105 28.5 245t76.5 267t114 215t132 88q64 0 118 -21t91.5 -56.5t67 -82t47.5 -97.5t30.5 -102t18 -97.5t8 -82t2.5 -56.5v-21q-2 -45 -28.5 -74t-68.5 -28 q-33 1 -61 30.5t-25 57.5q0 179 -18.5 280t-53.5 139.5t-94 38.5q-52 0 -96 -61.5t-71.5 -156t-42.5 -199.5t-15 -199q65 8 174 8q54 0 54 -47q0 -20 -14.5 -34.5t-53.5 -33.5q-29 -11 -71.5 -23t-70.5 -18l-28 -6q-2 -138 6 -247q7 -109 36 -284t30 -202q3 -34 -22.5 -61 t-59.5 -27q-12 0 -37 10q-32 55 -54 129.5t-33 166.5t-15.5 154t-8.5 157q-3 60 2 178q-204 -33 -440 -62q4 -59 12 -166.5t12.5 -170.5t9 -155.5t5.5 -176.5q0 -30 -22.5 -54t-49.5 -20q-31 0 -57 27.5t-29 60.5q-16 220 -39 641q-89 -21 -215 -21q-37 0 -59.5 22.5 t-22.5 57.5zM1417 440q3 164 25 297q1 18 21.5 33.5t39.5 13.5q27 0 45.5 -16.5t18.5 -46.5q-4 -106 -4 -168q0 -247 67 -455q14 -59 -43 -73q-25 -12 -48.5 -6t-33.5 28q-43 77 -67 190t-21 203z" />
<glyph unicode="&#xfb04;" horiz-adv-x="2037" d="M-29 696q0 24 16.5 41t49.5 26.5t63 14t74 8.5q5 1 15.5 2t18.5 2t18 2t16.5 2t12.5 2t8.5 2t0.5 1q-8 43 -8 145q0 94 8.5 190.5t29 195.5t50.5 174.5t78 122.5t106 44q81 -2 151.5 -83t106 -183t33.5 -182q-2 -50 -24.5 -80.5t-57.5 -30.5q-66 0 -73 88 q-3 54 -11 101.5t-21 91t-34.5 69t-48.5 25.5q-43 0 -77 -94t-50 -225t-16 -265q0 -59 6 -88q107 13 229.5 20t192.5 8l69 1q-4 41 -4 200q0 86 3 158.5t10.5 162t23.5 157.5t40 127.5t62.5 90.5t87.5 29q82 -2 150.5 -75.5t102.5 -169t32 -176.5q-1 -49 -25 -81t-57 -32 q-34 0 -53 25t-21 65q-16 260 -108 260q-100 0 -100 -637q0 -73 4 -98q33 -2 80 4.5t106.5 21.5t116 44.5t104.5 69.5t77.5 101.5t29.5 135.5v12q0 176 -2 246q0 26 19 44.5t50 18.5q62 0 104 -44t48 -116t-35 -165q-29 -351 -29 -449q0 -113 4.5 -199.5t11.5 -145.5t20 -99 t25.5 -62t32 -33t35.5 -13.5t41 -0.5q23 1 48 29.5t40 30.5q18 1 26.5 -15t8.5 -35q0 -48 -55 -111t-127 -63q-55 0 -97 20.5t-70 61t-46.5 90t-28 118t-13 133t-3.5 147.5q0 223 6 348q-39 -75 -105 -131t-140.5 -85.5t-141 -43.5t-125.5 -15q4 -52 20.5 -265.5 t22.5 -354.5q0 -31 -24 -55t-50 -21q-33 0 -58.5 28t-27.5 60q-37 516 -41 588q-247 0 -483 -29q4 -59 12 -166.5t12.5 -170.5t9 -155.5t5.5 -176.5q0 -30 -22.5 -54t-49.5 -20q-31 0 -57 27.5t-29 60.5q-16 220 -39 641q-89 -21 -215 -21q-37 0 -59.5 22.5t-22.5 57.5z" />
<glyph horiz-adv-x="2048" />
<glyph horiz-adv-x="2048" />
<glyph unicode="&#xd;" horiz-adv-x="2048" />
<glyph unicode=" "  horiz-adv-x="532" />
<glyph unicode="&#x09;" horiz-adv-x="532" />
<glyph unicode="&#xa0;" horiz-adv-x="532" />
<glyph unicode="!" horiz-adv-x="540" d="M166 1315q0 38 19 61t40 23q52 0 78.5 -56t26.5 -135q1 -32 5.5 -165t4.5 -207q0 -439 -66 -439q-35 0 -61 173.5t-36.5 374.5t-10.5 370zM170 117q0 34 20.5 51.5t55.5 17.5q129 0 129 -102q0 -32 -33.5 -58t-67.5 -26q-27 0 -65.5 43.5t-38.5 73.5z" />
<glyph unicode="&#x22;" horiz-adv-x="559" d="M102 1067q0 17 16.5 24t35.5 7q30 0 46 -16.5t19.5 -36t3.5 -50.5l4 -207v-15.5v-19.5t-0.5 -18.5t-2 -20t-4 -17.5t-7 -16.5t-10 -12t-13.5 -9t-18 -2.5q-26 0 -42.5 27.5t-21 56.5t-4.5 58zM346 1028q0 19 9.5 32t27.5 13q41 0 56.5 -56.5t15.5 -158.5v-27.5v-22.5v-17 t-1 -16.5t-2.5 -16t-3.5 -21.5t-6 -26q-3 -25 -18 -44t-37 -20q-18 -1 -28.5 17t-10.5 34z" />
<glyph unicode="#" horiz-adv-x="1341" d="M55 440q2 80 105 80q11 0 49.5 -2t64.5 -2q33 0 93 6l36 197q-93 -28 -141 -19q-34 2 -53.5 14t-18.5 42q2 28 13 47t26 29t40.5 16.5t47 8.5t56.5 5.5t59 7.5q12 51 32.5 196.5t47.5 223.5q11 35 53 35q55 -3 70.5 -27.5t13.5 -78.5q-3 -114 -31 -308q32 8 73.5 14.5 t66.5 9.5l26 3q9 48 25 177.5t18 141.5q27 85 88 82q43 -3 56.5 -29.5t11.5 -72.5q-2 -42 -17.5 -139t-19.5 -140l164 5q80 0 135 -17q45 -13 39 -59q-1 -33 -23 -51.5t-55 -16.5q-56 0 -160 -6t-135 -14l-20 -246q31 2 131 2q69 0 96 -2q18 0 28.5 -15.5t10.5 -35.5 q0 -55 -81.5 -83.5t-207.5 -31.5q0 -49 -18 -278q-2 -57 -12 -72q-12 -20 -47 -19q-113 10 -113 181q0 41 6 86t12 69l6 25l-204 -23q-6 -25 -6 -82q0 -44 -5 -186q-2 -37 -17.5 -63t-49.5 -25q-120 3 -117 141q1 36 13 110t14 99q-16 0 -65.5 -1.5t-78.5 -0.5 q-26 1 -46 4.5t-41.5 12.5t-33 28t-10.5 47zM535 526q44 6 92.5 10.5t74.5 5.5l27 1l31 248q-25 -2 -68.5 -11t-74.5 -18l-31 -8q-7 -10 -24 -88t-27 -140z" />
<glyph unicode="$" horiz-adv-x="851" d="M84 827q3 62 57.5 112t121.5 74t124 25q-8 68 -8 199q0 27 6.5 53.5t25.5 49t46 22.5q29 -1 45.5 -17.5t20 -35.5t3.5 -49l9 -216q5 -1 12.5 -3t26.5 -9.5t34 -17.5t27 -27.5t12 -38.5q0 -28 -10 -41q-32 -38 -71 -52.5t-97 -14.5q-33 0 -74 15t-43 15q-21 3 -52.5 -16 t-31.5 -41q0 -27 28 -50t72 -41t98 -35.5t107 -39t97.5 -47t71.5 -63.5t26 -84q-1 -39 -24.5 -70t-56 -47t-65 -26t-54.5 -12l-23 -3l22 -338q0 -16 -20 -27.5t-35 -11.5q-57 3 -83 39.5t-26 93.5q18 168 27 230q-26 0 -72 -6.5t-69 -6.5q-44 0 -73.5 26t-29.5 68 q0 25 16.5 53.5t41.5 28.5q12 0 27.5 -12t27.5 -16q30 -15 145 -15q80 0 133.5 14.5t53.5 45.5q0 19 -41 39.5t-102 38.5t-132 45.5t-132 58.5t-101 79t-39 105z" />
<glyph unicode="%" horiz-adv-x="1212" d="M82 965q0 60 35.5 133.5t95.5 127.5t119 54q209 0 209 -268q0 -92 -85.5 -169t-179.5 -77q-78 0 -136 61t-58 138zM219 -47q51 189 280.5 680.5t323.5 648.5q3 6 15 11t24 5q27 0 47.5 -18t8.5 -45q-273 -634 -619 -1333q-9 -21 -37 -21q-32 0 -41.5 20.5t-1.5 51.5z M225 973q0 -25 17 -43.5t41 -18.5q61 0 108 52t47 112q0 72 -63 72q-56 0 -103 -60t-47 -114zM645 195q0 87 37.5 188.5t97.5 172.5t117 71q60 0 106 -31t73 -82t40.5 -110.5t13.5 -122.5q0 -107 -93.5 -202t-200.5 -95q-79 0 -135 65.5t-56 145.5zM793 217q0 -31 21 -58.5 t50 -27.5q60 0 109 73.5t49 135.5q0 33 -6 65t-24.5 59t-45.5 28q-37 2 -68 -33t-48.5 -84.5t-27 -92.5t-9.5 -65z" />
<glyph unicode="&#x26;" horiz-adv-x="1130" d="M137 262q0 161 135 311q-2 3 -14 22.5t-15 24.5t-13.5 24t-14.5 27t-12.5 26.5t-12 29.5t-9.5 29.5t-8.5 33t-4.5 32.5t-2 36q0 76 56.5 159t139 146t179 104.5t172.5 41.5q80 0 129 -33.5t49 -104.5q0 -90 -88 -221q-69 -102 -147.5 -199t-122.5 -143l-44 -47 q71 -110 160 -184q21 14 82 71.5t118.5 100.5t96.5 43q43 0 43 -21q0 -40 -66.5 -132.5t-131.5 -155.5q76 -61 149 -76q7 -2 25 -7t26 -8t21 -10t19 -14.5t11 -20.5t5 -30q0 -50 -25.5 -79.5t-69.5 -29.5q-47 0 -88 10.5t-77.5 33t-59 40t-55.5 47.5q-6 -5 -17 -13.5 t-43 -29.5t-62 -37t-68.5 -29.5t-69.5 -13.5q-112 0 -193.5 69.5t-81.5 176.5zM307 295q0 -43 27.5 -74t66.5 -31q29 0 62.5 15.5t52.5 30.5l19 16q-114 100 -164 190q-27 -23 -45.5 -63t-18.5 -84zM328 850q0 -29 17 -70t35 -68l17 -26q7 5 18.5 15.5t46 45t67.5 73 t74.5 98t74.5 120.5q19 37 3 59.5t-56 22.5q-107 0 -202 -80.5t-95 -189.5z" />
<glyph unicode="'" horiz-adv-x="399" d="M109 1362q0 28 16 55t43 27q33 0 59 -38t39 -93.5t19 -103t6 -79.5q0 -22 -5 -58.5t-14.5 -80t-28 -74t-42.5 -30.5q-32 0 -51 25t-19 51l10 213q0 45 -16 104t-16 82z" />
<glyph unicode="(" horiz-adv-x="714" d="M109 455q0 84 6.5 171t22 194.5t46.5 204t74.5 183.5t111 150t150.5 88q50 7 66 -2q13 -10 16.5 -24t-6.5 -25q-334 -225 -334 -869q0 -524 350 -653q23 -8 35 -24t12 -27q0 -23 -13 -36t-34 -13q-108 0 -195 40t-143.5 105.5t-94.5 155t-54 184t-16 197.5z" />
<glyph unicode=")" horiz-adv-x="714" d="M53 1401q0 23 14 38t33 15q109 0 196 -40t143 -106t93.5 -156t53.5 -184.5t16 -197.5q0 -71 -4 -144t-16 -165t-30.5 -175t-50.5 -168t-73 -151t-101 -116.5t-132 -71.5q-48 -7 -66 2q-15 8 -18.5 23.5t8.5 23.5q336 224 336 868q0 525 -355 652q-23 11 -35 27t-12 26z " />
<glyph unicode="*" horiz-adv-x="960" d="M82 1171q1 26 20 43t41 17q32 0 66 -21.5t58.5 -48t54.5 -58t51 -44.5q6 39 6 115q0 20 -1.5 83.5t-0.5 102.5q0 11 14 22.5t27 10.5q58 0 67 -103q5 -26 8 -87.5t9 -88.5q6 7 43.5 57.5t70 79.5t62.5 29q20 0 33.5 -19.5t13.5 -43.5q-1 -33 -27.5 -72.5t-58.5 -71 t-61.5 -70.5t-36.5 -69q23 -26 50 -43.5t63.5 -26t60.5 -12t72 -7t67 -5.5q23 -6 23 -41q0 -48 -37 -60q-43 -14 -95 -14q-94 0 -206 68q-5 -42 18 -102t21 -97q0 -22 -15.5 -35t-40.5 -12q-55 0 -86 115q-33 76 -35 102q-21 -12 -45 -47.5t-42 -67.5t-45 -56t-56 -20 q-25 3 -40.5 28t-12.5 50q8 51 40 98t82.5 99t67.5 74q-24 23 -75.5 62.5t-67.5 53.5q-10 7 -30.5 22t-30.5 22.5t-24.5 20t-21.5 22t-12.5 22t-5.5 24.5z" />
<glyph unicode="+" horiz-adv-x="911" d="M53 582q0 38 33.5 62.5t73.5 31.5l215 10q-2 180 4 250q7 45 25.5 67.5t60.5 16.5q88 -7 80 -135l-17 -193q28 -4 130 0.5t133 -2.5q27 -2 46.5 -17t16.5 -44q-4 -36 -67.5 -53t-147 -22.5t-98.5 -10.5l10 -318q-3 -49 -19 -68.5t-69 -19.5q-31 1 -52 23.5t-24 52.5 q-9 51 -12 98.5t-4 109t-4 105.5q-35 -11 -122 -18t-118 -2q-35 6 -54.5 27t-19.5 49z" />
<glyph unicode="," horiz-adv-x="524" d="M109 195q0 38 29 55.5t71 17.5q96 0 151.5 -79.5t55.5 -180.5q0 -37 -11 -86t-31.5 -99.5t-56.5 -85t-79 -34.5q-24 0 -48 21t-24 45q0 8 12 36q111 111 111 195q0 43 -18.5 68t-45 34.5t-53 17.5t-45 26t-18.5 49z" />
<glyph unicode="-" horiz-adv-x="741" d="M137 602q0 35 16.5 54.5t45.5 19.5l276 24q56 0 92.5 -22t36.5 -68q0 -65 -78 -71q-46 2 -132.5 -17.5t-127.5 -19.5q-54 0 -91.5 27.5t-37.5 72.5z" />
<glyph unicode="." horiz-adv-x="446" d="M109 141q0 49 26 90t74 41q56 0 93.5 -50.5t37.5 -106.5q0 -48 -29 -81.5t-73 -33.5q-56 0 -92.5 43t-36.5 98z" />
<glyph unicode="/" horiz-adv-x="772" d="M84 -2q44 241 217 727q50 141 132 344t138 320q15 24 33 24q33 0 59.5 -25t26.5 -55q0 -28 -15.5 -84.5t-33 -104t-41.5 -111t-29 -77.5q-52 -127 -179.5 -477t-209.5 -530q-14 -33 -51 -33q-56 0 -47 82z" />
<glyph unicode="0" horiz-adv-x="944" d="M55 444q-5 168 61.5 326.5t186.5 331.5q159 235 258 237q45 2 70.5 -24t19.5 -70q-1 -16 -6 -36t-9 -32l-5 -12q98 -37 172 -184t84 -330q4 -84 -11 -174.5t-50.5 -179t-86 -159t-125 -115.5t-161.5 -48q-85 -2 -159.5 38t-124.5 107.5t-80 152t-34 171.5zM221 463 q2 -57 15.5 -114.5t39 -111t70 -85.5t100.5 -31q66 2 118.5 37.5t84.5 89t52.5 121.5t28 132t5.5 124q-2 68 -15.5 130t-39.5 122t-73 105t-109 65q-112 -106 -196 -270.5t-81 -313.5z" />
<glyph unicode="1" horiz-adv-x="534" d="M166 446q0 213 17 438.5t57 362.5q8 35 55 35q23 0 38.5 -14t14.5 -35q-18 -199 -18 -387q0 -230 37 -744q4 -55 -23.5 -86.5t-67.5 -31.5q-34 0 -59.5 17.5t-34.5 49.5q-16 92 -16 395z" />
<glyph unicode="2" horiz-adv-x="974" d="M43 1063q0 23 12 47q75 94 192 159t222 64q146 -6 218.5 -85t72.5 -220q0 -93 -40 -198t-108 -234q-39 -76 -120.5 -215.5t-118.5 -208.5q71 -8 162 -8q76 0 151.5 7.5t177.5 22.5t137 19q20 1 38 -11.5t18 -27.5q-7 -112 -232 -149q-97 -25 -313 -25q-209 0 -299 18 q-61 11 -61 70q3 45 67 135q11 17 51 79.5t57 90t54.5 88t56.5 95.5t49 90t46 93.5t33 84t24.5 83t7.5 70.5q0 73 -41.5 122.5t-112.5 49.5q-37 0 -78 -18t-67 -37t-78.5 -61.5t-75.5 -59.5q-17 -10 -41 -10q-20 0 -40.5 24t-20.5 56z" />
<glyph unicode="3" horiz-adv-x="991" d="M84 1118q0 43 35 58q230 187 432 184q45 -1 84.5 -11t76.5 -31t58.5 -61t20.5 -94q-3 -114 -88.5 -242t-204.5 -233q29 -13 77.5 -32t82 -32.5t75.5 -33.5t70 -41.5t54 -49t38 -62.5t12 -77q-1 -48 -21 -90.5t-51 -74t-78.5 -60t-92 -48t-104.5 -38t-104 -29t-100 -22.5 q-82 -25 -129 -23q-21 0 -39.5 21t-19.5 53q-3 74 78 92q5 1 42 9t63.5 14t72.5 18t80 24t73.5 29.5t64.5 35.5t42.5 41t17.5 48q1 40 -38.5 72t-95.5 54t-112 43.5t-94.5 51t-37.5 66.5q1 36 31.5 80t73.5 88.5t86.5 92t74 104t31.5 110.5q0 46 -60 52q-58 0 -117.5 -27 t-130.5 -73t-104 -62q-24 -17 -55 -6q-31 12 -51 40.5t-19 71.5z" />
<glyph unicode="4" horiz-adv-x="946" d="M53 946q0 87 20.5 202.5t55.5 176.5q17 37 59 37q102 0 82 -117q-28 -156 -28 -289q0 -157 60.5 -248.5t189.5 -91.5q37 0 104 13q2 18 14 119.5t17 138.5t15.5 114t21.5 133.5t24 110.5q3 16 20.5 30.5t39.5 14.5q46 0 76.5 -25t23.5 -73q-88 -497 -88 -936 q0 -186 14 -334q6 -27 -19 -46t-59 -19q-64 0 -78 55q-43 138 -43 332q0 81 7 200q-46 -6 -86 -6q-136 0 -238 68.5t-153.5 182.5t-51.5 257z" />
<glyph unicode="5" horiz-adv-x="892" d="M82 819q0 99 26.5 172t79.5 119t123.5 72.5t167.5 38.5q183 27 416 45q26 0 38.5 -15t12.5 -34q0 -29 -19.5 -44t-54.5 -26q-103 -29 -244 -49t-253 -58q-67 -20 -95 -76t-28 -124q0 -43 23.5 -79.5t60.5 -62.5t82 -51t90 -52.5t82 -59.5t60.5 -79.5t23.5 -105.5 q0 -71 -36.5 -135.5t-96.5 -112t-131 -81.5t-146 -52q-42 -10 -73 28t-31 95q0 64 49 45q37 -16 53 -16q47 0 106 36t102.5 92.5t43.5 106.5q0 29 -24 56t-62 50.5t-84 48.5t-92 55t-84 64.5t-62 83t-24 105.5z" />
<glyph unicode="6" horiz-adv-x="946" d="M84 492q-3 268 93.5 488.5t309.5 362.5q19 19 56 15q33 -8 59.5 -30.5t26.5 -51.5q0 -30 -35 -53q-164 -109 -245.5 -289.5t-76.5 -360.5q110 56 226 56q99 0 188 -38t148 -114t59 -172q0 -156 -89 -256t-233 -100q-218 0 -350 154.5t-137 388.5zM281 403 q7 -73 37 -133.5t70.5 -96.5t83.5 -55.5t81 -19.5q86 0 139 44t53 130q0 57 -20.5 97.5t-56.5 61.5t-75.5 30.5t-86.5 9.5q-60 0 -116 -17t-82 -34z" />
<glyph unicode="7" horiz-adv-x="890" d="M2 1219q2 32 21.5 53t50.5 20q373 -14 637 -80q43 -10 70.5 -38.5t27.5 -71.5q0 -67 -100.5 -369t-122.5 -405q-7 -37 -18 -118t-21 -126q-8 -46 -42.5 -61t-80.5 -5q-64 14 -49 162q17 138 66 295.5t97.5 310t63.5 279.5q-79 12 -150.5 18.5t-116 8.5t-125 4.5 t-134.5 5.5q-35 6 -55 36t-19 81z" />
<glyph unicode="8" horiz-adv-x="909" d="M53 893q0 70 37 142.5t97.5 129.5t143.5 93t169 36q161 0 264 -59t88 -148q-11 -62 -47 -143t-79 -152.5t-85 -134.5t-70 -100l-28 -37q11 -10 28.5 -27t62 -66t79 -93.5t62.5 -99t28 -93.5q0 -69 -46 -129.5t-115.5 -94.5t-141.5 -34q-123 0 -196 83.5t-73 207.5 q0 147 84 318q-262 215 -262 401zM240 866q0 -29 10 -56.5t30.5 -55.5t36.5 -46.5t46 -48.5t40 -41q240 295 244 439q0 32 -35.5 55t-97.5 23q-124 0 -199 -78t-75 -191zM389 180q0 -42 37 -91.5t86 -49.5q47 0 82 40.5t35 84.5q0 16 -10.5 37t-35.5 51.5t-39.5 46.5 t-49.5 53t-39 41q-33 -39 -49.5 -99.5t-16.5 -113.5z" />
<glyph unicode="9" horiz-adv-x="868" d="M45 891q2 166 116 287t269 120q48 -1 92 -7t92 -20.5t81.5 -36.5t52.5 -59t12 -85q-49 -315 -49 -660l2 -358v-101q0 -18 -34.5 -31.5t-57.5 -11.5q-34 0 -55 34.5t-23 72.5q-1 38 -2.5 145t-4.5 200t-10 175q-11 -7 -29.5 -16.5t-68.5 -26t-92 -16.5q-81 2 -150 63.5 t-105.5 151t-35.5 180.5zM227 893q-1 -109 36 -172t85 -66q118 -3 169 93t54 290q0 45 -27 75.5t-81 31.5q-46 0 -85.5 -12.5t-74 -40.5t-55 -79t-21.5 -120z" />
<glyph unicode=":" horiz-adv-x="454" d="M109 676q0 21 16 49q9 27 14.5 38.5t16.5 25t27 18t42 4.5q39 0 69 -27t30 -65q0 -55 -35 -85t-92 -30q-34 0 -61 19t-27 53zM127 119q0 45 40 74.5t87 29.5q92 0 92 -106q0 -50 -34 -83.5t-85 -33.5q-100 0 -100 119z" />
<glyph unicode=";" horiz-adv-x="501" d="M109 754q0 104 104 104q50 0 90.5 -34.5t40.5 -86.5q0 -45 -41 -85t-84 -40q-53 0 -81.5 43t-28.5 99zM137 209q0 31 21.5 49t54.5 18q76 0 128 -83.5t52 -163.5q0 -33 -12 -83.5t-32 -102.5t-53.5 -89t-70.5 -37t-59.5 21t-22.5 61q0 22 15 53t33.5 57.5t33.5 65.5 t15 76q0 27 -16 48t-35.5 32.5t-35.5 31.5t-16 46z" />
<glyph unicode="&#x3c;" horiz-adv-x="763" d="M82 604q0 55 97.5 214.5t220.5 300.5t182 141q36 0 58 -26.5t22 -64.5q0 -29 -38.5 -83.5t-91.5 -114t-123.5 -153.5t-119.5 -181q285 -383 375 -494q18 -18 14 -51q-6 -45 -62 -45q-38 0 -169 118t-248 255.5t-117 183.5z" />
<glyph unicode="=" horiz-adv-x="821" d="M109 733q0 25 15 44t42 26q87 29 238 47t227 18q71 0 82 -51q3 -32 -8 -46.5t-41 -29.5q-82 -30 -238 -58t-207 -28q-42 0 -76 20t-34 58zM145 438q0 21 16.5 39t45.5 25q74 25 203 38t202 13q76 0 76 -37q0 -24 -13 -37.5t-46 -23.5q-70 -26 -179.5 -55t-185.5 -44 q-38 -5 -78.5 18.5t-40.5 63.5z" />
<glyph unicode="&#x3e;" horiz-adv-x="763" d="M84 1212q9 48 61 48q39 0 170.5 -118.5t248 -256.5t116.5 -185q0 -53 -97.5 -212t-220.5 -300t-182 -141q-36 0 -58 26t-22 64q0 24 24 62t66 87.5t89 105t101.5 131.5t94.5 149q-287 378 -377 491q-19 16 -14 49z" />
<glyph unicode="?" horiz-adv-x="645" d="M53 1163q0 54 54 114t127 98t128 38q177 0 177 -196q0 -60 -29 -148t-63.5 -163.5t-63.5 -159t-29 -134.5q0 -13 11 -28t24 -15t31.5 20.5t34.5 20.5q33 0 30 -49q-10 -60 -60 -109t-97 -49q-59 0 -90 49.5t-31 114.5q0 72 29.5 166t65.5 169.5t65.5 161t29.5 142.5 q0 20 -14 30.5t-33 10.5q-33 0 -71 -24t-65.5 -52.5t-58 -52.5t-51.5 -24t-36 21.5t-15 47.5zM225 115q0 39 22.5 74.5t59.5 35.5q96 0 96 -145q0 -34 -27.5 -57t-60.5 -23q-41 0 -65.5 35.5t-24.5 79.5z" />
<glyph unicode="@" horiz-adv-x="1263" d="M82 461q0 143 43 277.5t119.5 240t192.5 169.5t251 64q123 0 239 -75.5t186.5 -194.5t70.5 -242q0 -86 -41 -169.5t-116.5 -139t-162.5 -55.5q-24 0 -51 14t-42 28l-15 13q-63 -45 -131 -45q-94 0 -143.5 65t-49.5 150q0 87 75.5 163.5t166.5 76.5q65 0 108 -11.5 t60.5 -31t22.5 -37t1 -35.5q-3 -13 -13.5 -49t-15.5 -58t-5 -51.5t12 -48.5q16 -30 62 -14q60 21 99 94q39 71 39 166q0 75 -52.5 160t-140.5 145t-179 60q-96 0 -179.5 -58.5t-137 -151t-83.5 -202.5t-30 -217q0 -76 19 -151t55.5 -139.5t97 -104t135.5 -39.5q51 0 107 23 t96 38t67 2q14 -5 22.5 -19.5t8.5 -25.5q0 -44 -39 -78t-96.5 -51.5t-110.5 -26t-94 -8.5q-92 0 -173.5 53.5t-136 137.5t-86.5 187t-32 202zM547 520q0 -28 15 -47.5t42 -19.5q133 0 133 247q-82 20 -136 -34.5t-54 -145.5z" />
<glyph unicode="A" horiz-adv-x="974" d="M29 440q0 25 17.5 44.5t42 29.5t49 16.5t42.5 8.5l17 2q111 611 155 774q18 69 88 69q25 0 48.5 -21t37.5 -65q24 -67 102.5 -363.5t90.5 -336.5q64 4 125 4q91 0 96 -10q3 -6 3 -13q0 -11 -9 -26q-16 -21 -62.5 -43.5t-85.5 -34.5l-38 -12q88 -299 151 -467q4 -12 4 -23 q0 -21 -16 -39q-25 -26 -64 -26q-25 0 -53 37t-52 89.5t-48.5 121t-40 122t-29 102t-14.5 50.5l-271 -31q-7 -34 -18.5 -87.5t-42.5 -161t-55 -146.5q-9 -13 -20.5 -19t-19.5 -6t-19.5 1.5t-14.5 1.5q-31 0 -54.5 20t-13.5 55q28 80 55 162.5t40 124.5l12 43q-5 -1 -14.5 -3 t-32.5 -3.5t-41 2.5t-32.5 18t-14.5 39zM346 561l207 21q-34 125 -72 312t-43 230q-30 -234 -92 -563z" />
<glyph unicode="B" horiz-adv-x="1171" d="M-25 1231q8 19 34.5 22.5t49.5 -2.5l23 -6q0 18 2 45q2 21 20 35q15 12 34 12h5q34 -7 61 -41t38 -64l10 -30q30 -8 115.5 -14t178.5 -11t199.5 -21.5t190 -41.5t139 -76t55.5 -120q0 -35 -11 -65t-28 -53t-45 -44t-53.5 -34.5t-62.5 -28.5t-63 -23.5t-64.5 -21 t-57.5 -19.5q60 -2 122.5 -16.5t117.5 -40t90 -66.5t35 -90q0 -44 -19 -83.5t-48.5 -70.5t-78 -59t-93.5 -48t-110 -39.5t-112.5 -31t-116.5 -24.5t-106 -18.5t-97 -14.5t-75 -11h-5q-21 0 -41 15q-22 17 -22 47q-6 76 -6 252q0 136 -1 198t-5.5 177.5t-17.5 201t-35 156.5 q-67 19 -113 71q-36 41 -36 77q0 10 3 20zM305 1038q45 -200 51 -364q245 51 359 88q240 78 241 160q0 21 -15.5 37.5t-48 28.5t-68.5 20.5t-91 14t-100 8.5t-111 4.5t-109 2t-108 0.5zM350 180q8 -2 21 -1q37 0 107 12q96 17 200 48t185 79t81 96q0 30 -42 51.5t-113 31 t-137.5 13.5t-141.5 4l-154 -2q-2 -266 -6 -332z" />
<glyph unicode="C" horiz-adv-x="864" d="M66 324q-1 20 -1 43q-1 59 5 142q8 116 32 262.5t60.5 274.5t99 217t139.5 93h2q57 0 119 -70t107 -169t74.5 -201t31.5 -168v-7q1 -36 -17 -60q-20 -26 -59 -26q-26 -3 -49 9t-32 36q-9 54 -18 103.5t-26 115.5t-35 112.5t-43.5 79.5t-52.5 32q-52 -2 -90.5 -97 t-55.5 -224.5t-25 -234.5q-6 -83 -6 -132q0 -13 1 -23q1 -34 2 -50t5.5 -55.5t10.5 -62t19 -54.5t30 -49.5t43.5 -30t59.5 -11.5q45 2 90.5 14.5t82 31t71.5 39t62 38t49.5 29t39 11t25.5 -15.5q6 -11 6 -26q0 -16 -9 -38q-17 -40 -60 -82t-100.5 -79.5t-132.5 -62.5 t-148 -27h-9q-70 -1 -126 29q-60 32 -95 87t-54.5 120t-22.5 137z" />
<glyph unicode="D" horiz-adv-x="1282" d="M-6 1264q12 61 73 61q22 0 50 -8q86 -20 160.5 -39.5t194 -56.5t214.5 -76t200.5 -96t175.5 -117q71 -60 117 -140q44 -76 44 -158v-7q-1 -99 -51 -180.5t-124 -134t-177 -100t-194.5 -76t-194 -64.5t-158.5 -64q-29 -10 -50 -10q-10 0 -18 2q-28 9 -35 55 q-69 477 -69 803q0 88 2 129q0 43 14 150q-22 3 -41.5 3.5t-37 2.5t-46.5 10q-31 7 -47 41q-9 18 -8 37q0 16 6 33zM301 858q0 -299 61 -620q29 8 94 23t120 29t126 35.5t126 50t104 65t76 87t28 109.5v7q0 54 -28 106q-30 54 -78 96t-116.5 80.5t-134 65t-139.5 50 t-124.5 36t-96.5 22.5q-12 -64 -16 -135q-2 -31 -2 -107z" />
<glyph unicode="E" horiz-adv-x="1044" d="M-14 1149q0 88 110 88l119 -2q3 8 9.5 20.5t27.5 32.5q20 19 41 19h2q16 -1 37 -19t34 -36l13 -17q32 0 137 1t168 1q144 0 224 -11q81 -11 81 -49q0 -41 -51 -53q-90 -16 -202.5 -25.5t-171.5 -11t-204 -4.5q-16 -69 -24.5 -172t-9.5 -171v-68q90 0 213 23t215 59 q26 11 57 11q11 1 23 -1q44 -6 51 -37v-6q1 -41 -51 -77q-56 -39 -138.5 -64t-166 -43.5t-142.5 -26.5l-59 -8q0 -7 0.5 -19t3 -46.5t7 -66t14.5 -69.5t23 -65.5t34 -46.5t47 -19q76 0 159 24.5t133 49.5t113 63q30 16 54 16q16 0 28 -7q32 -18 33 -52q0 -30 -33 -63 q-72 -51 -156 -99t-197 -89.5t-198 -41.5q-55 0 -98.5 39t-68.5 97.5t-41.5 133.5t-22.5 138t-6 121q0 355 39 573q-1 0 -49.5 -4t-67.5 -4q-39 0 -65.5 23.5t-26.5 60.5z" />
<glyph unicode="F" horiz-adv-x="899" d="M53 1069q4 21 26 42t42 31l20 11q-1 10 -2 25t-2 52t2 44q0 90 82 90q38 0 62 -19.5t24 -56.5l8 -129q125 10 288.5 33.5t268.5 44.5q33 6 56 6q48 0 49 -26q2 -8 2 -16q0 -50 -88 -79q-3 -1 -124 -35t-249.5 -67.5t-200.5 -46.5l19 -324q140 12 242 47q79 19 110 19 q72 0 72 -51q0 -25 -38 -55q-42 -32 -102.5 -58t-122 -48.5t-104.5 -34.5l-43 -13q2 -34 5 -81.5t8 -165.5q2 -54 2 -86q0 -39 -3 -46q0 -41 -15.5 -60.5t-57.5 -19.5q-67 7 -88 80q-4 29 -14.5 251t-18.5 429l-8 207q-4 1 -11.5 3.5t-26 12t-32.5 20.5t-25.5 30t-11.5 40z " />
<glyph unicode="G" horiz-adv-x="1144" d="M82 586q0 91 16.5 188.5t55.5 199t94.5 181t141 130t188.5 50.5q141 0 214.5 -95.5t73.5 -246.5q0 -39 -15 -66.5t-50 -27.5q-71 0 -90 80q-6 20 -12.5 54t-12.5 57t-16.5 47t-30.5 36.5t-49 12.5q-68 0 -127 -41.5t-98.5 -105t-68 -141t-41.5 -149t-13 -128.5 q0 -71 17.5 -141t52 -132.5t95 -101.5t138.5 -39q67 0 141 42.5t74 96.5l-12 160q-175 -39 -224 -39q-104 0 -104 61q0 46 27 72t100 39q170 32 339 57q162 23 220 23h4q13 0 21 -1t20.5 -4t20.5 -12.5t12 -23.5q1 -3 1 -6q0 -16 -16 -28q-19 -15 -43 -23q-27 -14 -76 -32 t-84 -29l-36 -11q4 -69 28.5 -283.5t24.5 -310.5q0 -73 -74 -82q-7 -1 -13 -1q-23 0 -35 8q-16 11 -34 44q-13 38 -27.5 100t-17.5 95q-45 -45 -108.5 -69.5t-128.5 -24.5q-101 0 -190 53t-147.5 135.5t-92 181t-33.5 191.5z" />
<glyph unicode="H" horiz-adv-x="919" d="M115 512v133q0 470 53 694q10 50 70 50q41 0 67 -21q23 -19 23 -53v-8q-2 -38 -12.5 -177t-15.5 -234.5t-5 -184.5q0 -86 2 -129q195 0 256 12q-2 37 -2 154q0 284 22 581q1 22 26.5 31.5t55.5 9.5q45 0 64 -16t18 -60q-18 -295 -18 -512q0 -98 6 -172q20 1 82 10t90 9 q27 0 39 -7t12 -30t-22 -45.5t-53 -38t-62.5 -27.5t-53.5 -18l-22 -6q35 -305 35 -391v-37t-3 -29.5t-9 -27t-17.5 -14.5t-29.5 -7q-36 0 -65 50.5t-44 122.5t-25 144.5t-13 123.5l-3 50l-264 -12q31 -359 31 -461q0 -27 -0.5 -38t-4 -30t-11.5 -26t-23.5 -13.5t-38.5 -6.5 q-26 0 -40 5.5t-22 22.5q-25 44 -41 117.5t-22 170.5t-8 168.5t-2 172.5z" />
<glyph unicode="I" horiz-adv-x="446" d="M119 1227q1 45 23 65q24 21 59 23h8q27 1 47 -11q22 -14 25 -42q17 -261 49 -1141v-3q0 -45 -28 -71q-23 -21 -46 -21q-6 0 -12 1q-37 1 -57.5 30.5t-22.5 69.5q-45 704 -45 1100z" />
<glyph unicode="J" horiz-adv-x="851" d="M2 1217q0 30 14 32q232 72 527 72q149 0 229 -21q14 -4 22 -25q3 -10 3 -18q0 -7 -4 -12q-11 -15 -27.5 -24.5t-46.5 -14.5t-53.5 -6.5t-78 -4t-91.5 -5.5q57 -217 75 -334q24 -155 24 -329q0 -30 -1 -62q-6 -143 -43.5 -262t-95.5 -195.5t-129 -119t-146 -42.5 q-37 0 -98 21q-36 15 -56 60q-19 40 -19 81q0 5 1 10q2 46 25 64q10 8 24 -5.5t34.5 -32.5t41.5 -19q132 0 209.5 128.5t77.5 333.5q0 137 -17 265.5t-34 200t-48 181.5q-7 23 -10 35q-40 -2 -68.5 -6.5t-43.5 -9t-47.5 -15t-61.5 -18.5h-18q-32 3 -52 34q-18 27 -18 57v6z " />
<glyph unicode="K" horiz-adv-x="1126" d="M98 637q0 171 16 371t46 358q4 22 28.5 35.5t42.5 13.5q24 0 46.5 -18.5t21.5 -40.5q-35 -263 -35 -510q0 -142 8 -254q76 57 167.5 151.5t220.5 243.5t141 162q9 11 29.5 15.5t35.5 2.5q38 -7 52 -41q5 -13 5 -26q0 -19 -14 -35q-243 -303 -497 -563q17 -29 47 -52 t63 -38t81 -25t84.5 -15.5t89.5 -8t82 -3t75 -0.5q37 0 126 13t143.5 13t58.5 -26q1 -4 1 -9q1 -39 -63 -73q-70 -38 -168 -57.5t-184 -19.5q-94 0 -146 2t-132 10t-146 29.5t-125 56.5q0 -74 18.5 -163t45 -188.5t36.5 -156.5q3 -17 3 -33q0 -26 -10 -48q-16 -34 -56 -34 q-31 0 -49.5 10t-23 18.5t-13.5 29.5q-44 108 -91.5 341.5t-58.5 426.5q-2 43 -2 135z" />
<glyph unicode="L" horiz-adv-x="940" d="M115 784q0 257 16 492q1 31 28.5 47t59.5 16q51 -1 69 -23q16 -20 15 -61v-10q-12 -344 -12 -526q0 -256 20 -455q208 20 541 98q33 8 54.5 8.5t36 -9t20.5 -31.5q4 -9 4 -18q0 -41 -76 -72q-133 -58 -310 -106t-337 -68q-12 -2 -23 -2q-33 0 -53 16q-26 22 -27 57 q-26 366 -26 647z" />
<glyph unicode="M" horiz-adv-x="1495" d="M115 715q-2 14 -2 44q1 70 9 224q12 221 21 248q7 13 28.5 22t43.5 11q39 0 65 -26q26 -25 25 -61q1 -26 -15 -207q-14 -158 -15 -226q0 -5 1 -9q0 -217 31 -344q37 120 114.5 411t129.5 437q42 124 123 127q36 0 66 -27t34 -65q73 -398 78 -750q42 103 80 247t76.5 269 t91.5 220q18 38 71 38q36 0 66.5 -27t34.5 -63q9 -246 48.5 -542.5t102.5 -567.5q3 -12 3 -22q0 -49 -68 -49h-5q-96 0 -120 110q-36 154 -56.5 360t-30 322.5t-24.5 116.5q-25 0 -102.5 -292.5t-122.5 -522.5q-3 -18 -9.5 -31t-12 -19.5t-18 -10t-17.5 -4t-20.5 0 t-16.5 0.5q-33 0 -61 23.5t-31 58.5q-4 59 -14.5 330t-24.5 409q-13 136 -36 136h-1q-17 0 -60 -175.5t-104.5 -422.5t-108.5 -367q-14 -33 -30 -44t-51 -11q-32 0 -52.5 11.5t-31.5 41.5q-37 125 -58.5 316t-23.5 352z" />
<glyph unicode="N" horiz-adv-x="1073" d="M117 748q0 363 28 415q35 35 68 35h8q38 0 49 -27q50 -84 156 -320t190 -417q84 -180 101 -180q33 0 55 140q22 139 21 331q0 276 -48 481q-1 13 -1 25q0 36 13 63q18 36 54 39h3q74 0 104 -106q18 -78 29 -243t11 -255q-2 -55 -6 -110t-13 -143t-25 -161t-39 -142 t-58.5 -108.5t-79.5 -39.5q-41 0 -100 72.5t-115.5 176.5t-111 222.5t-90.5 207t-50 132.5q-4 -90 -4 -140q0 -144 20 -378q17 -203 17 -256v-13q-4 -31 -26.5 -50t-55.5 -24q-28 0 -55.5 18.5t-28.5 45.5q-20 287 -20 709z" />
<glyph unicode="O" horiz-adv-x="897" d="M84 561q25 506 190 746q21 33 43.5 41t55.5 8q63 -12 63 -95v-10q0 -21 -20 -45q1 0 6.5 1t7.5 1q12 0 31 -11.5t20 -25.5q62 -82 102.5 -138t96 -145.5t87.5 -162.5q33 -73 55 -163q21 -82 20 -158v-13q-3 -105 -69.5 -196t-167.5 -142q-97 -49 -198 -49h-8 q-58 2 -105.5 23.5t-80 54t-57 78.5t-38.5 94t-22 104t-10 104q-2 34 -2 70v29zM256 487v-17q0 -42 8 -84q10 -50 30.5 -96t59.5 -76t90 -32h7q67 0 116 36q52 38 76.5 96t28.5 126q1 80 -33.5 174t-78.5 166t-102 166.5t-85 153.5q-70 -158 -90 -280.5t-27 -332.5z" />
<glyph unicode="P" horiz-adv-x="1085" d="M74 481q-1 3 -1 7q0 36 91 94q-20 267 -47 694v9q-1 45 17 69q16 21 48 21q7 0 15 -1q46 -2 122 -14t173 -33.5t194 -56t179.5 -76t135.5 -99t56 -120.5v-15q0 -56 -20 -107q-23 -58 -60.5 -101t-94.5 -83t-110.5 -66.5t-122.5 -52.5t-116.5 -40.5t-106 -31t-78.5 -23.5 q4 -62 10.5 -123.5t18.5 -161.5t20 -168q1 -13 1 -24q0 -44 -18 -70q-20 -29 -64 -29h-11q-39 0 -65.5 28.5t-26.5 74.5q-2 56 -21 233t-22 215q-8 2 -28 6t-27 6t-18.5 7t-16 13t-6.5 19zM301 1198v-27q0 -69 4 -147q5 -94 13.5 -214t11.5 -189q33 7 71.5 17t107.5 30.5 t129 47.5t118 61t94 79q38 48 37 97q0 40 -60 80q-62 42 -158.5 74t-190.5 55t-177 36z" />
<glyph unicode="Q" horiz-adv-x="1032" d="M82 420q0 220 78 425.5t219 428.5q1 2 15.5 23.5t20.5 29t20.5 26.5t25 28t25.5 20.5t30 16.5t31 5q28 0 55 -16t27 -45q0 -14 -71.5 -121.5t-92.5 -128.5q4 1 26 8t29.5 9t24.5 6.5t30.5 6t26.5 1.5q75 0 133 -32.5t92.5 -83t56.5 -118t30 -130.5t8 -128q0 -86 -5 -147 t-22.5 -136t-57 -134.5t-100.5 -102.5q4 -24 12.5 -45t18.5 -37t26.5 -31t29.5 -24.5t36 -19.5t37.5 -16t42 -13t41 -10.5t43 -9.5t41.5 -9q49 -11 49 -45q0 -32 -41.5 -54.5t-85 -30t-78.5 -7.5q-102 0 -196.5 66t-126.5 161q-108 -37 -160 -37q-91 0 -160 40.5t-108 108 t-57.5 144t-18.5 158.5zM252 471q0 -46 10 -97.5t30.5 -103t59.5 -85t90 -33.5q33 0 51.5 9.5t24.5 24t9.5 29.5t12.5 26.5t27 14.5q71 18 118.5 60t69.5 105t30 124t8 143q0 40 -11 92.5t-32 105.5t-57.5 89.5t-80.5 36.5q-29 0 -60 -19.5t-52.5 -42t-42.5 -38.5t-33 -11 l-45 21q-60 -131 -93.5 -236t-33.5 -215z" />
<glyph unicode="R" horiz-adv-x="1083" d="M115 1298q-1 4 -1 8q0 18 18 28q22 14 50 14h5q25 0 44 -5q142 -18 345 -108t325 -197q45 -37 69 -95q20 -47 20 -94q0 -12 -1 -24q-2 -57 -46 -104.5t-114.5 -81t-142 -59t-147 -51t-109.5 -44.5q67 -62 101 -93t102 -84.5t120.5 -83t126 -58t148.5 -38.5q29 0 42 -11.5 t13 -40.5q-3 -14 -12 -25t-24 -17.5t-27 -10.5t-33.5 -5.5t-31.5 -2t-32 0t-24 0.5q-86 6 -175.5 43t-167 94.5t-133 107.5t-106.5 106q-2 -11 -2 -37q-1 -36 3 -99q2 -42 3 -71q0 -48 -6 -64q-25 -88 -84 -88q-49 8 -68.5 27.5t-23.5 73.5q-14 208 -16.5 626t-7.5 563z M291 920q0 -60 8 -326q45 24 144 54.5t176 54t138.5 66t61.5 95.5q0 56 -90 123t-209 117t-221 70q-8 -196 -8 -254z" />
<glyph unicode="S" horiz-adv-x="823" d="M55 324q0 49 25 122q4 21 19 37.5t44 16.5q31 0 48.5 -29t17.5 -68q0 -64 22 -126t71.5 -107t115.5 -45q82 0 134 66t52 182q0 50 -29 99.5t-75 92.5t-101.5 86.5t-111 89.5t-101.5 94.5t-75 108.5t-29 123q0 54 12.5 104.5t39 95.5t73 72t108.5 27q95 0 156.5 -33.5 t114.5 -93.5q41 -47 41 -123q0 -43 -15.5 -79.5t-40.5 -49.5q-1 0 -12.5 -4t-19.5 -5t-20 -1.5t-22 5t-18 15.5q-10 18 -8 30.5t9 26.5t7 15q0 63 -38.5 108.5t-108.5 45.5q-52 0 -80.5 -47t-28.5 -91q0 -47 29.5 -94.5t77.5 -89.5t105 -86.5t114.5 -92.5t105.5 -99.5 t77.5 -116t29.5 -133.5q0 -201 -95.5 -309.5t-262.5 -108.5q-110 0 -193.5 55t-123.5 137.5t-40 176.5z" />
<glyph unicode="T" horiz-adv-x="1021" d="M-82 1073q0 92 109 92l344 -2q0 23 2 82q1 21 1 30t2.5 31.5t5.5 34t9 29t14 26.5t21 16t29 7q17 0 30.5 -4.5t21 -15.5t12.5 -19t7 -26.5t3 -25t0 -28.5t-1 -24l7 -113q109 0 243.5 20t249.5 54q30 10 51 10q41 0 47 -39q1 -3 1 -5q1 -27 -55 -59q-60 -34 -154.5 -63 t-197.5 -51t-185 -31q0 -78 3 -165t6.5 -152t11.5 -166.5t12.5 -151t15.5 -166.5t14 -155q2 -37 -8 -57.5t-45 -20.5q-37 0 -58.5 13t-25.5 47q-32 151 -52.5 318t-29 289.5t-19.5 346.5l-272 -18q-31 0 -50 1t-44.5 7t-40 17.5t-25 33.5t-10.5 53z" />
<glyph unicode="U" horiz-adv-x="1126" d="M98 629q0 64 2 131.5t7 138t8 114.5t9 113.5t7 83.5q4 34 28 48t42 14q33 0 60.5 -24t21.5 -56q-17 -170 -17 -479q0 -279 25 -381q15 -64 57 -113t113 -49q67 0 121.5 48.5t86.5 123.5t49 156.5t17 156.5q0 115 6 508q3 64 18 92.5t58 28.5q45 0 72 -38q26 -36 26 -96 l-6 -402q0 -334 30 -496t112 -162q26 0 59 18.5t57 18.5q15 0 23 -15.5t8 -31.5q-3 -70 -51 -112q-46 -40 -113 -40h-6q-60 2 -107 27t-77 67.5t-48 93t-26 111.5q-54 -110 -132.5 -176.5t-176.5 -66.5q-138 0 -226.5 84.5t-113.5 230.5q-23 125 -23 330z" />
<glyph unicode="V" horiz-adv-x="929" d="M16 1206v7q0 31 15 57q17 28 51 35q82 0 92 -95q34 -247 123.5 -513t167.5 -427q158 451 297 1028q8 35 25.5 52.5t52.5 17.5h7q33 0 46 -34q9 -24 9 -47q0 -13 -3 -25q-42 -222 -102 -452t-103 -371t-139 -441q-4 -25 -22.5 -40t-43.5 -15q-6 -1 -12 -1q-27 0 -51 12 q-28 14 -39 44q-118 258 -232.5 614.5t-138.5 593.5z" />
<glyph unicode="W" horiz-adv-x="1239" d="M92 1147q0 53 62 53q63 -4 71 -74q49 -353 72 -475q17 -131 46 -266.5t50 -138.5h1q34 0 118 382q86 384 100 548q6 43 64 43q42 0 51 -48q9 -104 39 -310t75 -410t79 -209q28 0 57 189.5t41 340.5q4 86 4 254q0 183 -4 315q0 17 13 31t36 17h5q12 -1 25 -9 q16 -10 19 -22q47 -134 47 -381q0 -21 -6 -186q-2 -17 -5 -80.5t-8 -131.5t-14 -155t-24.5 -161.5t-36.5 -138.5t-55 -100q-31 -33 -68 -32h-6q-114 9 -201 258q-74 301 -80 328q-77 -286 -98 -351q-16 -48 -30 -84.5t-41.5 -94t-61.5 -89.5q-32 -31 -66 -31h-2 q-33 2 -63.5 42t-53.5 109t-41.5 138t-33.5 158t-22.5 138.5t-14.5 107.5q-20 147 -31 301q-9 121 -9 191q0 19 1 34z" />
<glyph unicode="X" horiz-adv-x="1040" d="M82 43q0 51 32.5 128t70.5 139t97.5 155.5t84.5 136.5q-17 41 -92 182t-133 264t-58 169q0 69 43 88q15 7 30 7t31 -9q28 -16 43 -46q42 -78 116 -234.5t122 -240.5q6 9 51.5 83t84 131t90 127t97.5 109.5t78 39.5q36 0 62 -13.5t26 -41.5q0 -17 -84 -135.5 t-183.5 -258.5t-125.5 -192q247 -414 305 -488q14 -12 25.5 -37t11.5 -49q0 -51 -65 -51q-48 0 -91 24t-73.5 60.5t-61 88t-51.5 98.5t-48 101t-48 87q-21 -39 -69.5 -116t-81 -141t-46.5 -128q0 -44 -5 -72.5t-25 -51t-56 -22.5q-104 0 -104 109z" />
<glyph unicode="Y" horiz-adv-x="798" d="M-49 1159q-4 13 -4 25q0 17 8 33q14 28 51 28q55 0 90 -51q36 -50 126.5 -208t139.5 -224q20 81 55.5 179t85 200.5t104.5 186.5t118 138t119 54q35 0 35 -39q0 -35 -25 -68q-159 -242 -241 -423t-111 -363q-15 -123 -15 -256q0 -82 7.5 -293t7.5 -346q0 -34 -16 -61 t-54 -27q-81 0 -88 90q-32 268 -41 446q0 12 -2 69t-3.5 81t-6 67.5t-10.5 77.5q-13 86 -55.5 181.5t-88.5 168t-101 167.5t-85 167z" />
<glyph unicode="Z" horiz-adv-x="1011" d="M14 1247q8 33 28 49q16 13 39 14q5 0 11 -1q188 -27 490 -27h139h14h19h21.5t23 -1.5t21.5 -4t20.5 -6.5t16 -9t11.5 -12.5t4 -17.5q0 -142 -227 -553q-112 -202 -330 -512q249 0 453 31q7 1 56.5 6.5t72.5 5.5q88 0 88 -49q0 -17 -7 -30t-24 -24t-25 -15t-29 -12 q-5 -2 -7 -3q-288 -109 -694 -109q-45 0 -74.5 6.5t-49 28.5t-14.5 59q0 9 49 85t147.5 225.5t162.5 249.5q95 149 170.5 295.5t95.5 201.5q-22 2 -146.5 5t-254 10t-203.5 20q-68 14 -68 94z" />
<glyph unicode="[" horiz-adv-x="667" d="M115 -190q18 332 18 1153v419q0 16 16 29.5t46 13.5h159q117 0 168 -2q32 -3 46.5 -20t6.5 -43q-3 -19 -27 -32.5t-53 -20t-69 -10.5t-62 -4.5t-45 -0.5q-22 0 -22 -26l6 -744q0 -397 -31 -653q41 -8 88 -8l175 8q40 0 58 -13t17 -46q-11 -47 -39 -54q-105 -26 -356 -26 q-58 0 -82.5 16.5t-17.5 63.5z" />
<glyph unicode="\" horiz-adv-x="772" d="M82 1333q0 29 27 54.5t59 25.5q12 0 18 -5t15 -19q58 -121 141 -326t129 -338q183 -515 217 -727q9 -82 -45 -82q-40 0 -51 33q-82 177 -207.5 523t-183.5 484q-5 14 -29 77.5t-41.5 111t-33 104t-15.5 84.5z" />
<glyph unicode="]" horiz-adv-x="667" d="M55 1348q2 18 13 32.5t28 20.5q111 29 359 29q56 0 80 -17t18 -65q-18 -382 -18 -1153v-416q0 -19 -16.5 -33t-47.5 -14h-160q-121 0 -168 2q-31 2 -45 19t-8 48q5 28 64.5 44t106 19t87.5 3q25 0 25 24l-11 746q0 352 31 653q-62 8 -88 8l-172 -8q-81 0 -78 58z" />
<glyph unicode="^" horiz-adv-x="948" d="M115 319q4 24 142 210t218 288q20 33 66 33q26 0 53 -18.5t37 -45.5q5 -10 31.5 -60.5t37.5 -72t35 -69.5t37 -77.5t30.5 -70t29 -74t18.5 -63.5q8 -31 -9 -46t-42 -15q-38 0 -80 49t-72.5 110t-66.5 129t-58 92q-61 -54 -160 -176t-149 -174q-36 -31 -68 -26 q-47 13 -30 77z" />
<glyph unicode="_" horiz-adv-x="1124" d="M-53 -426q0 76 53 76q70 0 331 -5t414 -5q202 0 379 10q56 5 56 -70q0 -92 -56 -92q-44 0 -331 -2t-449 -2q-198 0 -338 4q-35 1 -47 23.5t-12 62.5z" />
<glyph unicode="`" horiz-adv-x="796" d="M213 1237q-16 49 15.5 74t74.5 18q26 -5 100.5 -64t140.5 -131.5t66 -105.5q0 -31 -32 -31q-31 0 -194.5 102.5t-170.5 137.5z" />
<glyph unicode="a" horiz-adv-x="763" d="M55 424q6 43 16.5 93.5t32.5 116.5t48.5 118t67 88.5t85.5 36.5q148 0 230 -136q6 -10 34.5 -3.5t42.5 -0.5q33 -21 33 -69q0 -17 -5 -45.5t-5 -32.5q-2 -30 -2 -58q1 -80 15 -146q20 -90 69 -208q4 -14 4 -28q1 -14 -3 -26q-6 -26 -16 -32q-18 -12 -48.5 -12.5 t-41.5 8.5q-45 36 -86 103.5t-47 113.5q-77 -150 -82 -160q-31 -47 -77 -81q-42 -31 -89 -31h-8q-52 6 -89 52.5t-53.5 111t-22.5 123.5q-4 39 -4 72q0 17 1 32zM190 332q0 -56 15 -94q15 -37 43 -37h2q33 0 72 65.5t65.5 159t26.5 170.5v63q-2 24 -23.5 50.5t-44.5 27.5 q-74 0 -133 -241q-6 -17 -14.5 -67.5t-8.5 -96.5z" />
<glyph unicode="b" horiz-adv-x="868" d="M84 1415q0 23 20 41q22 18 66 19q39 0 62.5 -30.5t23.5 -72.5q0 -21 7 -204.5t7 -346.5q84 49 154 49q112 0 202.5 -60t139.5 -157t49 -209q0 -151 -92.5 -253.5t-235.5 -102.5q-35 0 -70 7.5t-56 15t-38 12.5t-24.5 -0.5t-7.5 -24.5l6 -73q0 -97 -96 -97q-97 0 -97 101 v61q0 64 2.5 199.5t2.5 224.5zM256 444q0 -99 56 -159t155 -60q87 0 133.5 59.5t46.5 159.5q0 122 -64.5 213t-156.5 91q-58 0 -98 -51t-56 -117t-16 -136z" />
<glyph unicode="c" horiz-adv-x="778" d="M53 455q0 100 60 194t155 151.5t193 57.5q94 0 162.5 -57.5t68.5 -149.5q0 -11 -10.5 -22t-26.5 -11q-27 0 -50 13.5t-38 30t-42.5 30t-63.5 13.5q-95 0 -173.5 -85t-78.5 -182q0 -70 33.5 -123t89 -81.5t116.5 -42t127 -13.5q63 0 115 10q28 5 47 -11q13 -11 13 -29 q0 -8 -2 -17q-7 -37 -83.5 -56.5t-152.5 -19.5q-459 0 -459 400z" />
<glyph unicode="d" horiz-adv-x="874" d="M55 403q5 107 41 198t105.5 149.5t158.5 58.5q69 0 160 -43q6 76 6 156q0 60 -3.5 133t-7.5 121t-10.5 125t-8.5 100q0 44 23.5 70t72.5 26q34 -1 60 -33q24 -30 24 -64v-5q8 -140 12 -555q0 -15 -4 -115.5t-4 -171.5q0 -410 131 -412q29 1 71 15q36 13 57 12h5 q22 0 34 -21q9 -15 8 -32q0 -7 -1 -13q-20 -50 -70 -73t-102 -23q-104 6 -169.5 57t-74.5 146q-55 -73 -129 -118q-69 -42 -141 -42h-10q-71 1 -120.5 34.5t-73 88.5t-33.5 111q-8 46 -7 98v22zM197 401q-1 -12 0 -23q-1 -64 23 -114q28 -58 91 -65q80 0 143.5 86t67.5 202 v11q0 74 -38 116q-40 44 -109 45h-6q-75 -1 -121 -73q-48 -76 -51 -185z" />
<glyph unicode="e" horiz-adv-x="714" d="M53 344q0 92 29 191t76.5 179.5t112.5 132.5t132 52q47 0 87.5 -20.5t68 -53t47.5 -73.5t29.5 -82.5t9.5 -79.5q0 -70 -26.5 -120.5t-74 -79t-105 -41.5t-128.5 -13q-34 0 -104 8q0 -84 48 -136.5t134 -66.5q15 -2 52 -5t61 -7t51.5 -12.5t42 -26.5t14.5 -45 q0 -17 -16 -28.5t-41.5 -16.5t-44 -6.5t-37.5 -1.5q-87 0 -160.5 20t-132.5 61t-92 110.5t-33 160.5zM221 496q56 -11 105 -11q122 0 159 54q13 13 15 44v13q0 25 -6 50q-8 32 -28 56.5t-48 24.5q-40 0 -75 -24t-59 -63.5t-38 -73t-25 -70.5z" />
<glyph unicode="f" horiz-adv-x="727" d="M-29 696q0 24 16.5 41t49.5 26.5t63 14t74 8.5q88 11 90 17q-8 43 -8 145q0 94 8.5 190.5t29 195t50.5 173.5t78 121q45 43 99 43h7q81 -2 151.5 -83t106.5 -183q33 -97 33 -173v-9q-2 -50 -24.5 -80.5t-57.5 -30.5q-66 0 -73 88q-3 54 -11 101.5t-21 91t-34.5 69 t-48.5 25.5q-43 0 -77 -94t-50 -225t-16 -265q0 -59 6 -88q161 10 233 25h11q28 0 51 -12q27 -15 20 -42q-5 -22 -56 -41t-130 -40t-117 -37q4 -56 16 -212t17.5 -261t7.5 -213q0 -30 -23 -54q-19 -21 -41 -21q-4 0 -8 1q-31 0 -57 27.5t-29 60.5q-15 202 -39 647 q-115 -27 -215 -27q-37 0 -59.5 22.5t-22.5 57.5z" />
<glyph unicode="g" horiz-adv-x="741" d="M51 324q-1 20 -1 40q0 102 38 206q47 125 127 206.5t164 87.5q13 2 25 2q61 0 98 -47q14 16 34 32.5t31 16.5h4q15 0 26 -6q13 -7 20.5 -23.5t12.5 -34.5t7.5 -47.5t3 -53.5t1.5 -60q1 -33 1 -49q12 -381 12 -440l-4 -140q-1 -69 -16.5 -144t-49 -150.5t-79.5 -134.5 t-116 -95q-64 -33 -138 -33h-12q-35 3 -53.5 26.5t-18.5 53.5q-2 28 22 56.5t62 29.5q64 2 115 44t82 109.5t47 148t16 165.5q0 68 -14 154q-35 -73 -104 -132t-132 -63q-6 -1 -13 -1q-55 0 -99 40q-48 43 -72 106t-27 130zM197 387q13 -96 27 -123q18 -33 48 -33h4 q70 6 119 64.5t67 137.5q14 60 14 121q0 20 -1 40q-3 63 -35 98q-30 33 -60 33h-3q-44 -3 -80.5 -41t-57.5 -92.5t-32 -108.5q-10 -49 -10 -89v-7z" />
<glyph unicode="h" horiz-adv-x="956" d="M84 1341q5 45 29 79q23 34 65 34h2q52 0 70 -36q14 -28 13 -63q0 -10 -1 -22q-8 -76 -8 -233q0 -379 65 -776q20 26 44.5 85.5t47.5 119.5t50.5 118t64.5 93q34 32 72 32h6q26 -2 46 -24.5t32.5 -60t20.5 -71.5t14.5 -73t9.5 -51q1 -5 7 -30.5t10.5 -43t13 -48.5t17 -54 t19.5 -51.5t23.5 -48.5t26 -38.5t30 -28t33.5 -10.5q14 0 44.5 16.5t56.5 14.5q7 0 18.5 -15t11.5 -24q0 -59 -48 -99t-113 -40q-64 1 -117 56t-85.5 132.5t-56.5 154.5t-41.5 131t-29.5 54q-20 0 -50 -63.5t-58.5 -145.5t-68 -173t-73.5 -132q-11 -8 -43 -8 q-39 0 -60.5 21.5t-21.5 56.5q-3 45 -17.5 141.5t-17.5 142.5q-5 80 -21 299q-18 219 -26 384q-7 134 -6 246v52z" />
<glyph unicode="i" horiz-adv-x="380" d="M84 440q7 191 25 316q4 13 22 21.5t39 6.5q29 0 48.5 -16.5t19.5 -46.5q-11 -97 -11 -168q0 -246 70 -455q3 -12 3 -23q0 -40 -46 -50q-17 -8 -33 -8q-7 0 -15 2q-24 6 -34 28q-42 78 -66 191q-22 101 -22 182v20zM90 1038q0 33 26 60q25 26 56 26h2q48 0 72 -14.5 t24 -62.5q-2 -41 -38 -75q-35 -33 -78 -32h-2q-32 3 -48 33q-14 27 -14 57v8z" />
<glyph unicode="j" horiz-adv-x="430" d="M-121 -387q0 33 14 44.5t39 5.5t52.5 -17t63 -22t61.5 -11q38 0 58.5 48.5t20.5 96.5q0 192 -24.5 420t-24.5 336l-2 90q0 164 85 164h5q31 -2 57 -20.5t23 -45.5q0 -31 -4 -113.5t-4 -156.5q0 -102 24.5 -326t24.5 -348q0 -112 -74 -202.5t-178 -90.5q-96 0 -156.5 48.5 t-60.5 99.5zM137 1075q0 49 29.5 72.5t73.5 23.5q30 0 60 -22.5t30 -58.5q0 -32 -35.5 -65.5t-69.5 -33.5q-31 0 -59.5 28.5t-28.5 55.5z" />
<glyph unicode="k" horiz-adv-x="823" d="M82 586q0 113 25.5 346.5t25.5 349.5q0 80 55 80q26 0 43.5 -14t24.5 -41t9.5 -50.5t2.5 -56.5l-43 -526q0 -74 6 -107q14 9 72 48t86.5 56t75.5 43.5t82.5 38t64.5 11.5q61 0 68 -45q4 -24 -12.5 -46.5t-38.5 -35.5q-33 -22 -148.5 -86t-161.5 -98q66 -30 150 -49 t150 -26.5t124.5 -16.5t90.5 -29.5t32 -55.5q0 -28 -36 -44t-80 -16q-9 0 -17 -1q-34 0 -65 2q-255 34 -406 111q35 -197 35 -273q0 -23 -22.5 -41t-51.5 -18q-46 0 -78 57q-39 113 -51 239.5t-12 293.5z" />
<glyph unicode="l" horiz-adv-x="391" d="M82 1333q0 25 19.5 43.5t50.5 18.5q27 0 46.5 -14t29.5 -37t14 -46t4 -47l-4 -551q0 -135 16 -269t32.5 -227.5t16.5 -129.5q0 -74 -57 -74q-60 0 -76 33q-55 127 -72.5 323.5t-17.5 454.5v252q0 198 -2 270z" />
<glyph unicode="m" horiz-adv-x="1232" d="M72 741q2 38 6 72.5t20 59t43 24.5q35 0 51.5 -22.5t16.5 -71.5q0 -336 80 -561q14 55 32 163t32.5 187t47.5 162t80 123q16 18 45 18q23 0 36.5 -7t23.5 -30q31 -60 52.5 -226t39 -295.5t41.5 -129.5q9 0 19.5 61.5t24 149t33 175t56 149t84.5 61.5q54 0 63 -33 q19 -55 55.5 -170.5t60.5 -187.5t61.5 -166t74.5 -164q9 -6 9 -25q0 -22 -27 -35t-49 -8q-41 1 -80.5 57.5t-69 137.5t-53.5 162t-43 137.5t-29 56.5q-12 0 -23.5 -51.5t-24.5 -130.5t-29.5 -163t-44 -161t-62.5 -112q-16 -19 -39 -19q-18 0 -32 6t-25.5 20.5t-16.5 23 t-16 30.5q-25 64 -39.5 156.5t-19.5 175.5t-9 158t-12 119.5t-24 44.5q-19 0 -34.5 -82t-21.5 -168q-18 -142 -48.5 -287t-68.5 -213q-17 -31 -56 -31h-7q-22 0 -39.5 16.5t-28 45.5t-16.5 50.5t-11 49.5q-1 4 -1 6q-77 387 -86 627q-2 18 -2 41v24z" />
<glyph unicode="n" horiz-adv-x="894" d="M84 813q-1 23 18 41t39 18q32 0 54 -16.5t26 -46.5q47 -241 47 -374v-11q16 25 34.5 79t36.5 105t43.5 101t65.5 81t91 31q64 0 88 -67q16 -57 34 -152.5t31 -154t44.5 -123.5t78.5 -105q6 -6 24 -21.5t23.5 -21t15.5 -17t13.5 -20t3.5 -18.5q0 -30 -25 -49t-55 -19 q-47 0 -97.5 35t-82.5 78q-34 49 -57 116.5t-32.5 127t-15.5 112.5t-12.5 84t-17.5 31q-24 0 -51.5 -59.5t-50.5 -136.5t-57 -170.5t-65 -143.5q-9 -24 -36 -45t-52 -21q-24 0 -46.5 29t-24.5 53q-13 63 -13 123l5 123q0 190 -25 424z" />
<glyph unicode="o" horiz-adv-x="686" d="M54 356q0 29 1 58v32q0 42 4.5 83.5t15 91.5t31 92t49.5 77t74 55.5t101 20.5q69 0 128.5 -47.5t95.5 -117.5t56.5 -144t20.5 -133q0 -91 -46 -178t-128 -144t-176 -57q-37 0 -67.5 7t-53 19.5t-40 30.5t-28 40t-18.5 47t-12 53q-4 27 -6 56q-2 24 -2 48v10zM188 389 q0 -36 2 -59t9.5 -54t27 -47t49.5 -16q98 0 161 76t63 174q0 52 -21 113t-64 109t-96 48q-35 0 -61 -30t-41 -80.5t-22 -109.5t-7 -124z" />
<glyph unicode="p" horiz-adv-x="956" d="M84 664v7q0 28 14 49q15 25 47 25q22 3 36.5 -3t23 -23t12 -31.5t8.5 -42.5q0 -5 4.5 -32.5t7.5 -52.5t1 -36q28 92 75 166t100 118t105 66.5t98 22.5h13q64 0 114 -27q55 -29 85.5 -75t48.5 -104t22 -107q2 -25 2 -48t-2 -44q-20 -157 -127.5 -259.5t-249.5 -105.5 q-14 -1 -28 -1q-45 0 -91 10q-61 12 -106 34q-2 -41 -2 -127q0 -65 2 -183t2 -163q0 -122 -16 -160q-6 -19 -27 -34t-43 -17q-9 -2 -18 -2q-19 0 -33 12q-21 16 -21 47q-2 43 -2 140v139q-5 176 -21.5 441.5t-33.5 400.5zM305 307q119 -39 197 -39q101 0 166.5 57t68.5 189 v22q0 16 -1 30q-1 24 -9 58t-23.5 57.5t-45.5 40.5q-28 15 -67 15h-5q-169 -6 -281 -430z" />
<glyph unicode="q" horiz-adv-x="716" d="M53 393q0 96 28.5 191t90.5 172t145 96q30 5 56 5q64 0 102 -32q4 17 25 30t43 15q11 3 20 3q43 0 55 -62q2 -16 2 -47q0 -34 -2 -87q-6 -101 -14 -171q-22 -412 -22 -479q0 -80 16 -248q4 -44 13.5 -80.5t36.5 -66.5q25 -25 59 -25h10q12 1 31 7t33 9.5t29 4t25 -9.5 t13 -30q4 -15 4 -28q0 -16 -5 -28q-9 -25 -27 -37.5t-38 -21t-34 -10.5l-15 -2q-19 -2 -37 -2q-78 0 -132 32q-67 39 -85 112q-47 189 -47 463q0 77 4 116q-33 -18 -92 -39q-38 -11 -74 -11q-50 0 -96 22q-79 38 -102 127q-19 50 -19 112zM213 420q0 -57 8 -101 q1 -23 34 -35q17 -6 33 -6q14 0 27 5q113 25 131 186q11 45 11 123q0 94 -11 153q-15 3 -29 3q-37 0 -69 -18q-45 -26 -74 -74t-45 -109.5t-16 -126.5z" />
<glyph unicode="r" horiz-adv-x="737" d="M82 406q0 287 20 348q2 11 19 28t39 17t36 -12.5t19.5 -38.5t6.5 -45t1 -54q0 -117 17 -217q80 165 127 231q116 164 272 164q93 0 106 -49q5 -13 5 -25q0 -21 -13 -39q-20 -28 -63 -34q-99 -14 -169.5 -70t-129.5 -172q-85 -177 -137 -360q-21 -49 -68 -49 q-23 0 -35 6.5t-18 25.5q-35 118 -35 345z" />
<glyph unicode="s" horiz-adv-x="724" d="M55 246q7 36 30 70q21 31 52 30h8q9 -1 15.5 -10t9 -18.5t5 -25t3.5 -20.5q0 -52 74.5 -96.5t134.5 -46.5q15 -1 28 -1q87 0 87 40v5q0 31 -22 63q-24 35 -63 68t-86 67.5t-93.5 72t-83.5 76.5q-38 38 -58 84q-16 36 -15 71q0 10 1 21q6 60 40.5 104.5t89.5 68.5t120 34 q46 7 97 8q20 0 42 -2q56 0 93 -27q31 -23 31 -53q0 -6 -1 -12q-5 -47 -82 -47q-20 0 -82 8q-12 2 -26 2q-21 0 -44 -4q-39 -6 -73.5 -28t-34.5 -58q-1 -3 -1 -7q0 -28 56 -85q25 -21 87 -68t103 -82.5t87 -85.5t68 -104q17 -44 17 -91q0 -11 -1 -22q-5 -42 -28.5 -73.5 t-55.5 -47.5q-34 -16 -72 -26q-34 -9 -65 -10h-9q-36 2 -67 6q-53 4 -105.5 19.5t-103.5 44t-81 77.5q-26 43 -26 97v14z" />
<glyph unicode="t" horiz-adv-x="710" d="M-104 793v10q0 31 15 55q18 28 50 29q18 0 32.5 -6t31.5 -16t30 -15q17 -6 34.5 -11.5t37 -9t33 -6t37 -4.5t33 -3t37 -2.5t34.5 -2.5q-2 29 -2 104q0 250 16 349q1 22 17.5 35.5t38.5 15.5h4q51 0 61 -80q4 -70 4 -121l-2 -194q0 -76 2 -111h10q10 0 27.5 0.5t37 1.5 t41 2t36.5 2q23 4 52 4q18 1 38 -1q52 -4 53 -32q0 -73 -291 -108q1 -46 9.5 -135.5t9.5 -100.5q22 -244 65 -393q9 -19 -7.5 -36t-41.5 -17t-46 10.5t-35 31.5t-24 42.5t-17 52t-11 51.5t-8 50.5t-6 39.5l-25 400q-1 0 -34.5 0.5t-40.5 1t-39 1.5t-44.5 2t-40.5 3t-44 5 t-38 6.5t-39 8.5t-32 11q-24 9 -40.5 32.5t-18.5 47.5z" />
<glyph unicode="u" horiz-adv-x="946" d="M84 333.5v53.5q0 271 41 369q5 20 23 36.5t42 16.5q29 0 45.5 -20.5t16.5 -47.5q0 -47 -7 -181t-7 -204q0 -81 19.5 -154t53.5 -73q52 0 95.5 51.5t70 128.5t51.5 167t43 167t42 128.5t51 51.5q52 0 71 -32t19 -91q0 -14 -3 -74.5t-3 -103.5q0 -383 147 -383q31 0 56 16 t32 17q17 6 31 -6.5t14 -26.5q0 -63 -57.5 -94t-128.5 -31q-51 0 -91 23t-63 57.5t-37.5 81.5t-19.5 87t-6 81q-20 -66 -49 -127t-71 -120.5t-100.5 -95.5t-123.5 -36q-32 0 -58.5 10t-45.5 25.5t-34.5 42t-25 49.5t-16 59t-10 60.5t-5.5 63.5t-2 58.5z" />
<glyph unicode="v" horiz-adv-x="761" d="M31 735q-2 10 -2 19q-1 14 3 26q6 22 25 33q18 8 46 1.5t38 -30.5q18 -40 101 -269.5t129 -317.5q14 31 31.5 96.5t32 132.5t39.5 141.5t53.5 130.5t74.5 91q42 32 91 32h9q22 -3 40 -17t18 -34q0 -6 -15 -29q-27 -31 -49.5 -63.5t-43 -77.5t-32.5 -70t-30 -85 t-22.5 -74.5t-23.5 -87t-20 -76.5q-5 -19 -12.5 -57t-14.5 -66t-19 -59t-32.5 -52t-48.5 -30q-3 0 -8 -1t-9.5 -1t-8.5 2q-59 5 -70 32q-68 120 -145.5 349.5t-124.5 410.5z" />
<glyph unicode="w" horiz-adv-x="1064" d="M82 770q0 33 26.5 58t59.5 30q39 0 63.5 -24.5t24.5 -63.5q0 -22 -2 -64.5t-2 -56.5q-8 -236 -8 -237q0 -92 11 -144t42 -53q26 1 42.5 76t23.5 171t25.5 202t47.5 153q10 30 43 33q34 1 52 -24t18 -64v-215q2 -79 20 -166t51 -155t72 -74h5q35 0 65 87q32 94 48 223 t24 239q6 88 6 132v19q0 35 11.5 52.5t43.5 17.5q29 0 55.5 -16t26.5 -42q2 -47 2 -131q0 -129 -14 -236t-50 -284q-19 -84 -82 -151t-143 -70q-50 0 -92 26q-29 19 -49.5 40t-36 51.5t-22 46.5t-20 60t-17.5 56q-7 -19 -19.5 -63.5t-23.5 -76t-29.5 -66t-47.5 -54 t-67 -20.5h-20h-4q-77 0 -112 149q-28 122 -33 421q-1 28 -1 38z" />
<glyph unicode="x" horiz-adv-x="667" d="M-27 -25q-1 7 -1 14q0 40 20 86q23 55 58.5 105.5t71.5 98t60 92.5q20 38 20 66q0 5 -1 9q-2 28 -31 81t-59 117t-35 118q-2 24 8.5 46.5t36.5 27.5q6 1 12 1q36 0 62 -26q29 -37 64 -125t52 -119q28 29 92.5 114t118 138.5t103.5 65.5q5 1 10 1q17 0 33 -13 q21 -17 22 -46q2 -24 -26 -62.5t-70.5 -82.5t-86 -90.5t-78.5 -98.5t-42 -94q-1 -5 0 -10q0 -43 43 -120q49 -87 98 -105h7q3 0 14.5 7t19.5 7q20 0 29 -18q1 -7 3.5 -21t2.5 -22q2 -6 2 -13q0 -26 -29 -57q-36 -39 -71 -41h-10q-31 0 -58 15q-31 18 -53.5 50.5t-39.5 66.5 l-36.5 73t-34.5 59q-16 -19 -67.5 -105.5t-100.5 -152t-81 -67.5h-3q-14 0 -30 9q-18 10 -19 21z" />
<glyph unicode="y" horiz-adv-x="763" d="M2 797q-1 5 -1 10q0 25 21 41q24 20 50 20q21 -1 36.5 -13.5t30.5 -45t24 -58t27 -83.5q31 -95 90.5 -226t122.5 -211q39 84 73.5 183.5t71 223t54.5 175.5q11 29 60 29q65 -3 65 -72v-6q-4 -60 -37 -182t-64 -214l-32 -92q-80 -222 -179.5 -416t-189.5 -302 q-23 -37 -88 -37q-32 3 -47 26t-12 50q0 24 17 54t42 52q45 55 82 114.5t60 106.5t67 142q-61 58 -120.5 159.5t-103 209.5t-74 201t-46.5 161z" />
<glyph unicode="z" horiz-adv-x="778" d="M43 172q0 46 33 70q19 16 87.5 74t102 86.5t89 78t100.5 92.5t86 86q0 4 -9.5 8.5t-30 7.5t-48.5 3q-110 0 -246 -35q-30 -7 -56.5 3t-33.5 38q-9 24 3.5 48.5t43.5 33.5q119 43 293 43q54 0 107.5 -11.5t95.5 -40.5t42 -69q0 -33 -34.5 -83.5t-97.5 -112t-115.5 -109 t-124.5 -108t-90 -76.5q33 -18 98 -37t133 -19q56 0 90 3t90 19t119 48q23 7 41 7q33 0 43 -25q6 -14 6 -27q0 -34 -39 -64q-56 -37 -103.5 -58.5t-101.5 -30t-85.5 -10t-100.5 -1.5q-93 0 -191.5 28.5t-162.5 82.5q-33 18 -33 57z" />
<glyph unicode="{" horiz-adv-x="710" d="M53 528q0 32 15.5 59t39 44t51 38t51 41t39 52.5t15.5 73.5q0 67 -10.5 112.5t-23 67t-23 71t-10.5 123.5q0 101 62 184.5t159 112.5q35 11 58.5 -2.5t23.5 -46.5q0 -18 -19 -35.5t-46 -35t-53.5 -38.5t-45.5 -55t-19 -77q0 -33 13 -76.5t29 -82.5t29 -105t13 -138 q0 -47 -14.5 -88t-31.5 -63.5t-41 -50.5t-33 -42q81 -30 81 -180l-18 -389q0 -109 123 -158q8 -3 56.5 -12t76 -25.5t27.5 -46.5q0 -39 -41 -57t-99 -18q-55 0 -90 12q-97 30 -156.5 114t-58.5 197q2 76 19.5 195t17.5 196q0 47 -29 62q-9 3 -49 9t-64 19t-24 39z" />
<glyph unicode="|" horiz-adv-x="514" d="M168 930q0 324 12 493q0 12 17 21.5t28 9.5q20 0 35 -10t16 -29q22 -134 36 -296t21 -375.5t10 -338.5t4.5 -387.5t2.5 -320.5q0 -36 -25 -53t-59 -17q-41 0 -63.5 38t-22.5 85q1 181 -5.5 589t-6.5 591z" />
<glyph unicode="}" horiz-adv-x="710" d="M82 1436q0 73 139 73q61 0 90 -10q98 -32 156 -114.5t57 -198.5q-1 -74 -18 -192.5t-17 -194.5q0 -51 27 -62q10 -4 48.5 -10.5t62.5 -19.5t24 -39q0 -38 -21.5 -67.5t-51.5 -50.5t-60.5 -43.5t-52 -59t-21.5 -85.5q0 -66 10.5 -111.5t23.5 -67.5t23.5 -72t10.5 -125 q0 -102 -61.5 -184t-159.5 -113q-34 -11 -58 2.5t-24 44.5q0 19 18.5 37t45.5 35.5t54 39t45.5 56.5t18.5 78q0 39 -21.5 96t-43 134.5t-21.5 168.5q0 47 15 88t32.5 64.5t41 51.5t32.5 42q-80 28 -80 182l21 385q0 107 -125 162q-9 2 -42 7.5t-55.5 11.5t-42.5 21.5 t-20 39.5z" />
<glyph unicode="~" horiz-adv-x="1116" d="M82 612q0 48 19.5 101.5t56 102.5t98 81.5t135.5 32.5q72 0 126 -25.5t85 -61.5t57 -72t57.5 -61.5t69.5 -25.5q48 0 81 30.5t40 86.5q11 66 21 82q11 15 28 18q31 5 54.5 -14t23.5 -68q0 -142 -67.5 -222.5t-198.5 -80.5q-62 0 -111 25.5t-81 62t-60.5 73t-64 62 t-76.5 25.5q-55 0 -95 -39t-55 -109q-4 -26 -8.5 -42t-18 -32t-34.5 -16q-43 0 -62.5 18.5t-19.5 67.5z" />
<glyph unicode="&#xa1;" horiz-adv-x="540" d="M166 -418q0 168 10.5 369t36.5 375t61 174q66 0 66 -439q0 -79 -4.5 -212.5t-5.5 -159.5q0 -78 -26.5 -134.5t-78.5 -56.5q-22 0 -40.5 22.5t-18.5 61.5zM170 782q0 28 38.5 71.5t65.5 43.5q34 0 67.5 -26t33.5 -58q0 -100 -129 -100q-35 0 -55.5 17.5t-20.5 51.5z" />
<glyph unicode="&#xa2;" horiz-adv-x="899" d="M57 430q-3 55 42.5 115t115.5 109t133 84t113 55q8 118 8 163q-3 38 16 64.5t58 30.5q35 6 59 -21t27 -67l2 -127q7 -1 18 -2.5t40 -7.5t51 -13.5t41 -20.5t20 -28q0 -22 -11.5 -40.5t-25.5 -18.5q-12 -1 -66.5 -2.5t-72.5 -6.5l-43 -297q153 19 184 25q2 0 9.5 0.5t11 0 t7.5 -3.5t5 -9q0 -27 -9.5 -40t-35.5 -24q-28 -11 -78 -22.5t-86 -17.5l-35 -5q-5 -18 -12 -45.5t-18.5 -86t-10.5 -83.5q2 -48 -7 -68.5t-40 -23.5q-30 -1 -55 32t-31 74q-2 32 0.5 58.5t9.5 65t10 65.5q-5 0 -37 -4t-53 -4q-237 0 -254 147zM254 453q8 -76 170 -56 q21 164 33 248q-46 -15 -90.5 -39t-81 -66.5t-31.5 -86.5z" />
<glyph unicode="&#xa3;" horiz-adv-x="958" d="M82 80q0 32 25.5 54t63 37t76 32t68 50.5t35.5 82.5q7 95 -6 176l-225 14q-37 15 -37 43q0 32 23 53.5t55.5 29t64.5 10.5t55 2l23 -2q-12 26 -29.5 69t-47 152t-29.5 190q0 121 84 193.5t221 72.5q75 0 151 -35t124 -88t48 -104q0 -49 -80 -49q-23 0 -40.5 16.5 t-32.5 39.5t-34 46t-55.5 39.5t-86.5 16.5q-144 0 -144 -148q0 -38 3 -73t11.5 -70t14.5 -58.5t20 -59t20 -50t24 -53t22 -47.5h180q53 0 53 -52q0 -25 -21.5 -45.5t-54 -31.5t-65 -16.5t-59.5 -4.5q13 -77 -5.5 -174.5t-74.5 -157.5q112 0 217 16t174 32t92 16 q31 0 57.5 -31t26.5 -59q0 -55 -41 -66q-76 -23 -183.5 -34.5t-174 -13t-179.5 -1.5h-32l-221 -39q-46 0 -60 16t-14 64z" />
<glyph unicode="&#xa5;" horiz-adv-x="952" d="M33 1239q-12 31 3 58.5t54 27.5q58 0 88 -49q36 -51 138.5 -249.5t150.5 -264.5q23 98 68 204t99.5 194.5t118.5 146t119 57.5q22 0 31.5 -17t5.5 -41.5t-18 -48.5q-118 -175 -184 -309t-95 -262q239 -14 289 -22q17 -3 19 -21q9 -30 1.5 -54.5t-26.5 -37.5 q-31 -10 -98 -10q-20 0 -55.5 1t-45.5 1q-74 4 -110 4q-12 -73 -15 -156q310 -29 324 -31q23 -8 25 -30q9 -26 -2 -41t-27 -19q-75 -14 -158 -14l-166 6v-258q0 -33 -17 -60.5t-54 -27.5q-79 0 -93 90q-10 123 -10 258q-221 9 -301 25q-13 3 -16 18q-10 30 -2 56.5t26 35.5 q31 15 99 15q23 0 56 -1t44 -1q36 -7 92 -11q-1 13 -2 38t-2 36q-6 27 -14 74q-170 0 -273 16q-21 4 -24 29q-16 46 28 57q86 23 222 33q-40 92 -149 280.5t-144 274.5z" />
<glyph unicode="&#xa6;" horiz-adv-x="512" d="M168 256q0 27 0.5 40.5t4 43.5t11 46t23.5 30t39 14q20 0 36.5 -13.5t20.5 -35.5q43 -117 43 -332l-6 -287q0 -42 -17 -80t-57 -38q-52 0 -67 51q-14 85 -22.5 266t-8.5 295zM174 1290q0 97 4 109q3 47 49 47q28 0 45 -8t24 -25t9 -31.5t2 -38.5q0 -64 19.5 -318.5 t19.5 -264.5q1 -38 -27.5 -59t-62.5 -21q-31 0 -53.5 37.5t-22.5 83.5q0 8 -3 200t-3 289z" />
<glyph unicode="&#xa7;" horiz-adv-x="937" d="M115 -164q0 64 18 129q15 51 66 51q31 0 51 -29.5t20 -66.5q0 -63 21 -122.5t68.5 -102.5t111.5 -43q79 0 135 61t56 172q0 51 -29 101t-75.5 93t-102 87t-111.5 90t-102.5 94.5t-75.5 108.5t-29 123q0 87 31.5 164.5t97.5 111.5q-129 139 -129 264q0 142 103.5 219.5 t255.5 77.5q64 0 137.5 -16t132.5 -50.5t59 -78.5q0 -62 -59 -62q-42 0 -125.5 18.5t-151.5 18.5q-38 0 -78.5 -13.5t-73 -45t-32.5 -74.5q0 -37 26 -81t67 -87.5t91 -92t100.5 -103.5t91.5 -112.5t67 -127.5t26 -141q0 -58 -27 -107.5t-73 -81.5q149 -142 149 -297 q0 -197 -95 -304t-263 -107q-82 0 -150 31t-110.5 82.5t-66 115.5t-23.5 133zM289 600q0 -32 14 -64.5t32 -57.5t55 -59.5t62 -54.5t74 -59q84 35 84 115q0 34 -16 69.5t-54.5 81.5t-64.5 72.5t-84 83.5q-49 -1 -75.5 -42.5t-26.5 -84.5z" />
<glyph unicode="&#xa8;" horiz-adv-x="811" d="M92 1153q0 51 39 87t90 36t83 -34t32 -83q0 -50 -33.5 -94.5t-81.5 -44.5q-42 0 -85.5 45.5t-43.5 87.5zM465 1153q0 59 33 95t88 36q56 0 90.5 -42.5t34.5 -98.5q0 -121 -115 -121q-60 0 -95.5 36t-35.5 95z" />
<glyph unicode="&#xa9;" horiz-adv-x="1746" d="M109 610q0 159 50.5 305.5t142 260t232.5 181.5t310 68q167 0 315.5 -64.5t252.5 -173t164 -254.5t60 -306q0 -122 -28.5 -232.5t-88.5 -205t-146.5 -163.5t-209 -109t-268.5 -42q-139 0 -240.5 17t-191.5 60.5t-158.5 121t-122.5 194.5q-73 162 -73 342zM264 573 q0 -170 87 -293.5t233.5 -181.5t330.5 -51q598 15 560 637q-8 83 -36 163.5t-82 158t-127 136t-179 94.5t-230 36q-103 0 -193 -39t-155.5 -107t-113.5 -156.5t-71.5 -190t-23.5 -206.5zM516 612q0 73 20 137.5t58.5 116t103 81.5t146.5 30q141 0 258 -84q43 -33 43 -76 t-37.5 -67t-87.5 -2q-86 63 -166 63q-72 0 -127 -48t-55 -126q0 -49 16 -88q20 -45 62.5 -74t85.5 -29q40 0 73.5 15.5t51 34.5t39.5 43t36 34q37 18 64 0q23 -13 25 -35.5t-7 -41.5q-27 -74 -101.5 -126.5t-158.5 -52.5q-153 0 -247.5 80.5t-94.5 214.5z" />
<glyph unicode="&#xaa;" horiz-adv-x="892" d="M109 297q0 76 141 76q24 0 190.5 4t204.5 4q62 0 95.5 -17t33.5 -63q0 -21 -6.5 -37.5t-20.5 -25.5t-26.5 -15t-34.5 -8t-33.5 -2.5t-34 0t-26.5 0.5q-315 0 -393 8q-90 10 -90 76zM116.5 789.5q0.5 45.5 2.5 78.5q4 52 21.5 123t46.5 149t77 131.5t103 53.5 q68 0 127.5 -34t99.5 -101q4 -10 19 -9t30.5 5.5t30.5 -2.5q31 -22 31 -70q0 -13 -2 -27t-6 -30t-5 -23q-6 -113 14 -200.5t68 -208.5q9 -27 3 -53t-13 -31q-19 -14 -49.5 -15.5t-40.5 9.5q-46 36 -87.5 103t-45.5 116q-3 -5 -34.5 -67.5t-49.5 -92.5q-30 -48 -77.5 -84 t-96.5 -31q-43 5 -76 37.5t-50.5 77.5t-29 97.5t-11 98zM252 778q0 -57 13 -94.5t42 -36.5q34 0 73 65.5t65 158.5t26 169v62q-2 27 -22.5 53t-45.5 29q-21 0 -40.5 -20t-34 -53t-25 -63t-20.5 -64.5t-13 -43.5q-18 -81 -18 -162z" />
<glyph unicode="&#xab;" horiz-adv-x="1198" d="M82 389q0 52 36.5 131.5t80 145.5t99.5 148.5t75 115.5q14 31 51 31q46 -3 73.5 -35.5t24.5 -77.5q0 -29 -22.5 -67t-54.5 -78t-64.5 -82.5t-55.5 -92.5t-24 -96q-1 -47 33.5 -95t84 -87t99 -73.5t84 -65t33.5 -50.5q0 -29 -24.5 -53.5t-55.5 -21.5q-19 0 -41 6t-38 12.5 t-40 21.5t-34.5 22.5t-35.5 26t-30 21.5q-47 33 -101.5 80.5t-103 109.5t-49.5 103zM561 442q0 52 36 132.5t78 145.5t99.5 149.5t75.5 115.5q25 33 51 33q46 -4 74.5 -38.5t23.5 -78.5q0 -33 -33.5 -84.5t-74.5 -99t-76 -111.5t-37 -119q-1 -40 23.5 -81t62 -74t81.5 -66 t82 -57.5t63 -48.5t24 -41q0 -32 -24.5 -57t-53.5 -19q-29 0 -64.5 13.5t-54.5 25t-58.5 39.5t-43.5 31q-82 56 -166.5 143t-87.5 147z" />
<glyph unicode="&#xad;" horiz-adv-x="741" d="M137 602q0 35 16.5 54.5t45.5 19.5l276 24q56 0 92.5 -22t36.5 -68q0 -65 -78 -71q-46 2 -132.5 -17.5t-127.5 -19.5q-54 0 -91.5 27.5t-37.5 72.5z" />
<glyph unicode="&#xae;" horiz-adv-x="1746" d="M109 610q0 159 50.5 305.5t142 260t232.5 181.5t310 68q167 0 315.5 -64.5t252.5 -173t164 -254.5t60 -306q0 -122 -28.5 -233t-88.5 -206t-146.5 -164.5t-209 -109t-268.5 -39.5q-123 0 -240 33.5t-215.5 98.5t-173 153.5t-116 204.5t-41.5 245zM264 573 q0 -171 87 -298.5t234 -190t330 -55.5q299 10 439 177t121 478q-8 83 -36 163.5t-82 158t-127 136t-179 94.5t-230 36q-103 0 -193 -39t-155.5 -107t-113.5 -156.5t-71.5 -190t-23.5 -206.5zM592 305q33 535 33 635q0 61 29 86.5t83 32.5q184 12 284.5 -49.5t100.5 -196.5 q0 -76 -51 -142t-125 -81q30 -30 70 -53t107 -52t87 -39q65 -45 54 -73q-6 -29 -32 -41t-69 0q-9 3 -57 18t-63 20t-56 19.5t-61.5 25.5t-52 27t-55.5 34.5t-46 39.5l-6 8q0 -139 -10 -213q-6 -41 -28.5 -60.5t-55.5 -19.5q-74 0 -80 74zM772 705q42 -10 86.5 -1.5t79.5 34 t35 53.5q5 37 -6.5 64t-34 40t-44.5 19t-44 6q-19 0 -36.5 -3t-25.5 -7l-8 -3q0 -9 2 -38t2 -46q0 -19 -6 -118z" />
<glyph unicode="&#xaf;" horiz-adv-x="659" d="M57 1065q0 35 30 56.5t73 21.5q30 0 62.5 -1t86.5 -4.5t100 -11.5t90 -19.5t69.5 -32t25.5 -46.5q0 -23 -15.5 -38.5t-39.5 -14.5q-41 2 -109 2q-51 0 -136.5 -6t-129.5 -6q-41 0 -74 31t-33 69z" />
<glyph unicode="&#xb0;" horiz-adv-x="720" d="M82 930q0 60 26.5 123.5t53 104.5t26.5 44l-8 43q0 21 25 33t51 12q28 0 68 -16q315 -191 315 -363q0 -108 -85.5 -163.5t-199.5 -55.5q-118 0 -195 60.5t-77 177.5zM246 936q0 -33 26.5 -57.5t73.5 -24.5q34 0 66 7t60 30.5t28 60.5q0 45 -46.5 97.5t-91.5 52.5 q-47 0 -81.5 -57t-34.5 -109z" />
<glyph unicode="&#xb1;" horiz-adv-x="1021" d="M109 766q0 37 32.5 61t73.5 31l215 10q-4 178 6 250q3 43 23 66.5t61 17.5q87 -5 78 -135l-12 -193q25 -3 126.5 1.5t133.5 -3.5q25 -2 44.5 -17t18.5 -42q-4 -37 -68 -55t-149 -23.5t-98 -9.5q-4 -63 -2.5 -90.5t9 -83.5t9.5 -84q90 2 203 2h30t24.5 -3t23 -8 t12.5 -16.5t6 -27.5q0 -58 -92 -86q-13 -3 -284.5 -31.5t-286.5 -28.5q-40 0 -74.5 23.5t-34.5 60.5q0 40 28.5 68.5t74.5 36.5q29 4 190 8q-3 42 -5 121t-5 127q-32 -15 -117 -22t-123 -3q-34 6 -52.5 27t-18.5 51z" />
<glyph unicode="&#xb2;" horiz-adv-x="768" d="M82 1210q0 27 44.5 70.5t109.5 77t114 33.5q94 0 142.5 -54t48.5 -145q0 -94 -88 -258q-86 -150 -129 -234q9 -2 20.5 -2t25 1t19.5 1q165 0 260 29q26 7 46 -2.5t20 -36.5q0 -82 -148 -108q-70 -11 -192 -11q-118 0 -180 11q-23 3 -39.5 20.5t-10.5 36.5q18 45 87.5 156 t124.5 215t55 164q0 36 -21 61t-51 25q-62 0 -125 -66q-3 -3 -14.5 -13.5t-14 -12t-12 -8t-14.5 -8t-14 -3.5t-19 -2q-19 0 -32 18t-13 45z" />
<glyph unicode="&#xb3;" horiz-adv-x="673" d="M82 1239q0 40 20 53q155 109 269 109q58 0 103.5 -31t45.5 -94q0 -69 -50 -143.5t-120 -135.5q23 -11 65 -28t67.5 -29.5t53.5 -32t42 -46.5t14 -62q-1 -56 -48 -103.5t-114 -74.5t-131.5 -41.5t-110.5 -14.5q-57 0 -57 47q0 59 51 66q271 48 271 121q0 25 -36 46 t-79 33.5t-79 37.5t-36 57q0 26 27.5 60t60 64t61 72.5t29.5 81.5q0 10 -7.5 17.5t-20.5 7.5q-32 0 -78 -27t-89 -53.5t-67 -26.5q-23 0 -40 21t-17 49z" />
<glyph unicode="&#xb4;" horiz-adv-x="796" d="M215 1028q0 50 130 171t175 130q43 7 74 -18t18 -74q-10 -35 -173 -137.5t-195 -102.5q-18 0 -23.5 7.5t-5.5 23.5z" />
<glyph unicode="&#xb5;" horiz-adv-x="1005" d="M84 -244q6 84 20 631q0 86 10 199.5t29 169.5q9 21 28 37t44 16q27 0 42 -20.5t15 -47.5q0 -47 -8 -181t-8 -204q0 -81 20.5 -154t55.5 -73q61 0 109.5 71.5t78.5 173.5t54.5 204t52.5 173.5t59 71.5q52 0 69 -31t17 -92q0 -14 -1 -74.5t-1 -103.5q0 -383 145 -383 q34 0 58.5 16t27.5 17q21 5 33.5 -6.5t12.5 -26.5q0 -63 -56 -94t-129 -31q-63 0 -108 33.5t-67 87.5t-31.5 105t-10.5 104q-19 -65 -47.5 -127t-70.5 -121t-100.5 -95t-123.5 -36q-33 0 -76 17q29 -198 29 -244q0 -52 -24.5 -87t-63.5 -28q-38 3 -62.5 37t-21.5 96z" />
<glyph unicode="&#xb6;" horiz-adv-x="1099" d="M55 850q-5 66 25 127t83.5 108t126.5 87.5t150.5 69.5t159 51t148.5 34.5t122 18.5q35 7 52 -15t24 -69q17 -177 17 -410q0 -225 -21.5 -659t-23.5 -504q0 -30 -48 -37q-43 -3 -64 25.5t-28 80.5q-4 18 -4 103q0 217 8 291q0 2 1.5 44t4 109.5t4.5 147.5t3.5 174t1.5 172 q0 312 -25 323q-9 11 -50 -0.5t-48 -29.5q-20 -45 -31.5 -378t-11.5 -499v-21q1 -558 -82 -573q-20 -8 -39.5 6t-22.5 45q-18 125 -18 443q0 295 10 428q-166 37 -243 73q-174 81 -181 234z" />
<glyph unicode="&#xb7;" horiz-adv-x="446" d="M109 700q0 50 25.5 88.5t74.5 38.5q56 0 93.5 -49.5t37.5 -105.5q0 -47 -29.5 -82t-72.5 -35q-56 0 -92.5 43.5t-36.5 101.5z" />
<glyph unicode="&#xb8;" horiz-adv-x="647" d="M82 -489q0 17 9 25t19.5 9.5t32.5 1.5q33 0 78.5 9t95.5 27.5t84.5 54t34.5 81.5q0 27 -23.5 46.5t-58.5 19.5q-24 0 -47.5 -22.5t-47.5 -45t-50 -22.5q-32 0 -57 25t-25 59q0 37 35 144t35 161q0 26 19 43.5t46 17.5q29 0 48.5 -28t19.5 -62q0 -22 -10 -61.5t-20 -68.5 l-9 -29q58 14 86 14q85 0 137.5 -58.5t52.5 -146.5q0 -61 -36 -116t-90 -91.5t-114.5 -58t-111.5 -21.5q-44 0 -88.5 27t-44.5 66z" />
<glyph unicode="&#xb9;" horiz-adv-x="487" d="M88 1212q-8 17 4 44t37 49q98 82 143 79q22 0 37.5 -8.5t23 -18t11 -30t4 -30.5t0.5 -33q-3 -31 -5.5 -86.5t-6 -235t9.5 -344.5q1 -23 -16.5 -36t-38.5 -13q-27 2 -50 21t-24 61q0 2 -0.5 7.5t-1 19t-1 36t-1 67.5t-0.5 105q6 288 6 361q-3 -2 -12.5 -7t-18 -10.5 t-14.5 -9.5q-14 -14 -46.5 -12.5t-39.5 24.5z" />
<glyph unicode="&#xba;" horiz-adv-x="811" d="M109 297q0 76 141 76q24 0 152.5 4t166.5 4q63 0 97 -17t34 -63q0 -21 -6.5 -37.5t-21 -25.5t-27 -15t-35 -8t-34 -2.5t-35 0t-27.5 0.5q-237 0 -315 8q-90 10 -90 76zM114.5 779q-2.5 43 0.5 86v15.5v13.5v15q0 52 5.5 102t23 110t45.5 104t79.5 74t118.5 30t126 -47.5 t95.5 -117.5t57 -144t20.5 -133q0 -92 -46.5 -179.5t-128.5 -144.5t-175 -57q-54 0 -94.5 14.5t-63.5 40.5t-38 60.5t-19 74.5t-6.5 83zM244 850q0 -36 2 -59t9.5 -54t27 -47t49.5 -16q97 0 159 76t62 172q0 54 -20 115t-62.5 109t-95.5 48q-35 0 -61.5 -29t-41 -79.5 t-21.5 -109.5t-7 -126z" />
<glyph unicode="&#xbb;" horiz-adv-x="1198" d="M84 885q0 29 24.5 52.5t55.5 20.5q13 0 26.5 -2t27.5 -7t25 -9.5t26.5 -13.5t24 -13.5t25 -16.5t22 -15.5t22 -16t18.5 -14.5q47 -30 102.5 -79t104 -111.5t49.5 -104.5q0 -50 -36.5 -129t-79.5 -145.5t-98.5 -149t-74.5 -115.5q-21 -32 -51 -32q-49 6 -77 38t-23 76 q0 28 22.5 66t54.5 78t64.5 82.5t55.5 93t24 96.5q2 47 -32.5 96t-84 87.5t-99.5 73t-84.5 64.5t-33.5 50zM565 938q0 32 22 56t52 20q23 0 47 -6.5t51.5 -22t42.5 -25t45.5 -31.5t36.5 -26q47 -32 101 -79t103 -109t50 -103q0 -51 -37 -131t-79 -144.5t-101 -149.5 t-76 -113q-12 -35 -51 -35q-44 5 -71.5 37t-24.5 78q0 28 22.5 65.5t54.5 77t64.5 82t55.5 93t24 97.5t-33.5 95t-84.5 86.5t-100 73t-83.5 64.5t-30.5 50z" />
<glyph unicode="&#xbc;" horiz-adv-x="1320" d="M82 1227q0 27 19 53.5t46 44.5t55 32t47 20.5t21 6.5q22 0 37.5 -8.5t23 -18t11 -30t4 -30.5t0.5 -33q-14 -133 -14 -346q0 -201 12 -320q0 -23 -16.5 -36t-38.5 -13q-27 2 -50 21t-24 61q0 2 -0.5 7.5t-1.5 19t-2 36t-1.5 67.5t-0.5 105q0 34 4.5 153t3.5 208 q-7 -3 -22.5 -13.5t-31.5 -17t-32 -6.5q-49 0 -49 37zM188 -76q0 15 7 29q50 189 280.5 681.5t325.5 647.5q16 16 39 16q19 0 38 -13.5t19 -33.5q0 -12 -2 -16q-292 -674 -623 -1333q-7 -21 -34 -21q-50 0 -50 43zM725 549q0 39 3.5 78.5t12 83.5t27 71t43.5 27 q28 0 41.5 -19t13.5 -49q0 -18 -8 -85.5t-8 -100.5q0 -88 34.5 -140.5t106.5 -52.5q33 0 53 9q0 53 14.5 144t41 171t53.5 80q13 0 21 -1.5t19.5 -7.5t16 -22.5t0.5 -42.5q-2 -13 -9 -65.5t-10.5 -76.5t-9.5 -75t-9.5 -85.5t-7.5 -80t-5.5 -87.5t-1.5 -81q0 -122 10 -196 q0 -21 -15.5 -35t-37.5 -14q-19 0 -33 11t-22.5 32.5t-14 43t-7.5 52.5t-2.5 50.5t-0.5 47.5q0 25 4 111q-16 -2 -47 -2q-125 0 -195.5 87t-70.5 220z" />
<glyph unicode="&#xbd;" horiz-adv-x="1400" d="M88 1212q-8 17 4 44t37 49q98 82 143 79q22 0 37.5 -8.5t23 -18t11 -30t4 -30.5t0.5 -33q-3 -31 -5.5 -86.5t-6 -235t9.5 -344.5q1 -23 -16.5 -36t-38.5 -13q-27 2 -50 21t-24 61q0 2 -0.5 7.5t-1 19t-1 36t-1 67.5t-0.5 105q6 288 6 361q-3 -2 -12.5 -7t-18 -10.5 t-14.5 -9.5q-14 -14 -46.5 -12.5t-39.5 24.5zM197 -47q50 188 280 678.5t326 650.5q16 16 39 16q24 0 44.5 -18t10.5 -45q-330 -760 -623 -1333q-7 -21 -34 -21q-32 0 -41.5 20.5t-1.5 51.5zM688 627q0 28 44.5 71.5t109.5 77t114 33.5q94 0 141.5 -55.5t47.5 -149.5 q0 -38 -14.5 -87t-29.5 -82t-42 -87q-91 -163 -129 -231q8 -1 19.5 -1t25 0.5t18.5 0.5q167 0 264 26q25 8 43.5 -1.5t18.5 -37.5q0 -44 -41 -71t-107 -35q-98 -12 -188 -12q-92 0 -182 12q-24 2 -39.5 19.5t-5.5 35.5q14 39 59.5 117t89 148t78.5 148t35 126 q0 35 -20.5 59.5t-51.5 24.5q-57 0 -127 -66q-23 -26 -40.5 -35.5t-45.5 -9.5q-16 0 -30.5 18.5t-14.5 43.5z" />
<glyph unicode="&#xbe;" horiz-adv-x="1529" d="M82 1212q0 39 20 52q148 108 269 108q59 0 104 -30t45 -93q0 -69 -50.5 -144t-119.5 -132q24 -13 65 -30t67 -30t54 -32.5t42 -47t14 -63.5q-1 -55 -48 -102t-114 -73.5t-131.5 -41t-110.5 -14.5q-57 0 -57 47q0 28 11 43.5t40 19.5q3 1 28.5 6t45.5 9.5t51 12.5t54 17.5 t45.5 21t34.5 25.5t12 29q0 27 -36 48.5t-79 34t-79 36.5t-36 55q0 27 27.5 62.5t60 65.5t61 71.5t29.5 79.5q0 11 -7.5 18.5t-20.5 7.5q-32 0 -78 -26.5t-89 -53t-67 -26.5q-23 0 -40 20t-17 49zM362 -47q52 191 284.5 684t326.5 645q8 16 33 16q27 0 48.5 -18t10.5 -45 q-346 -791 -623 -1333q-7 -21 -39 -21q-30 0 -39.5 20.5t-1.5 51.5zM901 549q0 38 4 78.5t12.5 83.5t26.5 70.5t43 27.5q55 0 55 -68q0 -18 -7 -85.5t-7 -100.5q0 -89 34 -141t107 -52q31 0 54 9q0 53 14.5 144t41.5 171t54 80q13 0 21 -1.5t19.5 -7.5t15.5 -22.5t0 -42.5 q-54 -345 -54 -551q0 -117 8 -196q0 -21 -15.5 -35t-37.5 -14q-19 0 -33 11t-22.5 32.5t-14 43t-7.5 52.5t-2.5 50.5t-0.5 47.5q0 36 7 111q-16 -2 -48 -2q-125 0 -196.5 87.5t-71.5 219.5z" />
<glyph unicode="&#xbf;" horiz-adv-x="645" d="M109 -319q0 75 45.5 193.5t91 232t45.5 176.5q0 14 -11 29.5t-24 15.5q-14 0 -32 -19.5t-34 -19.5q-32 0 -26 47q6 59 55.5 107.5t97.5 48.5q59 0 91 -49t32 -113q0 -71 -29.5 -165t-65.5 -169.5t-65.5 -161t-29.5 -141.5q0 -43 47 -43q32 0 69.5 23.5t65.5 52t58.5 52 t50.5 23.5q22 0 36.5 -21.5t14.5 -45.5q0 -54 -54 -113.5t-127.5 -98t-129.5 -38.5q-172 0 -172 197zM242 817q0 34 27.5 57t60.5 23q41 0 64.5 -35t23.5 -78q0 -41 -22 -76.5t-60 -35.5q-94 0 -94 145z" />
<glyph unicode="&#xc0;" d="M29 440q0 25 17.5 44.5t42 29.5t49 16.5t42.5 8.5l17 2q111 611 155 774q18 69 88 69q25 0 48.5 -21t37.5 -65q24 -67 102.5 -363.5t90.5 -336.5q64 4 125 4q91 0 96 -10q9 -15 -6 -39q-16 -21 -62.5 -43.5t-85.5 -34.5l-38 -12q88 -299 151 -467q13 -35 -12 -61.5 t-64 -26.5q-25 0 -53 37t-52 89.5t-48.5 121t-40 122t-29 102t-14.5 50.5l-271 -31q-7 -34 -18.5 -87.5t-42.5 -161t-55 -146.5q-9 -13 -20.5 -19t-19.5 -6t-19.5 1.5t-14.5 1.5q-31 0 -54.5 20t-13.5 55q28 80 55 162.5t40 124.5l12 43q-5 -1 -14.5 -3t-32.5 -3.5t-41 2.5 t-32.5 18t-14.5 39zM225 1706q-11 46 20.5 71.5t73.5 18.5q27 -4 101.5 -63.5t140.5 -132t66 -105.5q0 -16 -6.5 -23.5t-24.5 -7.5q-33 0 -196.5 103.5t-174.5 138.5zM346 561l207 21q-34 125 -72 312t-43 230q-30 -234 -92 -563z" />
<glyph unicode="&#xc1;" d="M29 440q0 25 17.5 44.5t42 29.5t49 16.5t42.5 8.5l17 2q111 611 155 774q18 69 88 69q25 0 48.5 -21t37.5 -65q24 -67 102.5 -363.5t90.5 -336.5q64 4 125 4q91 0 96 -10q9 -15 -6 -39q-16 -21 -62.5 -43.5t-85.5 -34.5l-38 -12q88 -299 151 -467q13 -35 -12 -61.5 t-64 -26.5q-25 0 -53 37t-52 89.5t-48.5 121t-40 122t-29 102t-14.5 50.5l-271 -31q-7 -34 -18.5 -87.5t-42.5 -161t-55 -146.5q-9 -13 -20.5 -19t-19.5 -6t-19.5 1.5t-14.5 1.5q-31 0 -54.5 20t-13.5 55q28 80 55 162.5t40 124.5l12 43q-5 -1 -14.5 -3t-32.5 -3.5t-41 2.5 t-32.5 18t-14.5 39zM270 1497q0 35 65.5 108t139.5 131.5t100 61.5q44 7 76 -17.5t21 -70.5q-11 -36 -175 -139t-196 -103q-19 0 -25 7t-6 22zM346 561l207 21q-34 125 -72 312t-43 230q-30 -234 -92 -563z" />
<glyph unicode="&#xc2;" d="M29 440q0 25 17.5 44.5t42 29.5t49 16.5t42.5 8.5l17 2q111 611 155 774q18 69 88 69q25 0 48.5 -21t37.5 -65q24 -67 102.5 -363.5t90.5 -336.5q64 4 125 4q91 0 96 -10q9 -15 -6 -39q-16 -21 -62.5 -43.5t-85.5 -34.5l-38 -12q88 -299 151 -467q13 -35 -12 -61.5 t-64 -26.5q-25 0 -53 37t-52 89.5t-48.5 121t-40 122t-29 102t-14.5 50.5l-271 -31q-7 -34 -18.5 -87.5t-42.5 -161t-55 -146.5q-9 -13 -20.5 -19t-19.5 -6t-19.5 1.5t-14.5 1.5q-31 0 -54.5 20t-13.5 55q28 80 55 162.5t40 124.5l12 43q-5 -1 -14.5 -3t-32.5 -3.5t-41 2.5 t-32.5 18t-14.5 39zM174 1411q0 42 55.5 131.5t122 162.5t94.5 73q36 0 98 -83t107 -170.5t45 -109.5q0 -31 -8.5 -41t-32.5 -10q-17 0 -73 54t-103 108l-47 55q-7 -8 -18.5 -22.5t-42.5 -51t-57 -65t-52 -53t-37 -27.5q-20 -10 -35.5 5t-15.5 44zM346 561l207 21 q-34 125 -72 312t-43 230q-30 -234 -92 -563z" />
<glyph unicode="&#xc3;" d="M29 440q0 25 17.5 44.5t42 29.5t49 16.5t42.5 8.5l17 2q111 611 155 774q18 69 88 69q25 0 48.5 -21t37.5 -65q24 -67 102.5 -363.5t90.5 -336.5q64 4 125 4q91 0 96 -10q9 -15 -6 -39q-16 -21 -62.5 -43.5t-85.5 -34.5l-38 -12q88 -299 151 -467q13 -35 -12 -61.5 t-64 -26.5q-25 0 -53 37t-52 89.5t-48.5 121t-40 122t-29 102t-14.5 50.5l-271 -31q-7 -34 -18.5 -87.5t-42.5 -161t-55 -146.5q-9 -13 -20.5 -19t-19.5 -6t-19.5 1.5t-14.5 1.5q-31 0 -54.5 20t-13.5 55q28 80 55 162.5t40 124.5l12 43q-5 -1 -14.5 -3t-32.5 -3.5t-41 2.5 t-32.5 18t-14.5 39zM117 1520q0 49 23 99.5t75 90t121 39.5q37 0 66 -9t54 -30t35.5 -32.5t32.5 -39.5q2 -3 11 -12.5t12.5 -13t11.5 -11t13 -10.5t13 -5.5t15 -2.5q58 0 74 76q2 18 3 24t5 18.5t11.5 18.5t19.5 9q27 2 48 -13.5t21 -52.5q0 -103 -48 -161t-142 -58 q-14 0 -26.5 2t-22.5 3.5t-21 7t-17.5 8t-17 11t-14.5 11.5t-14.5 14t-13 13.5t-13 15t-12.5 14.5q-20 26 -29.5 36.5t-28 22t-38.5 11.5q-30 0 -52.5 -26.5t-31.5 -67.5q-6 -23 -9.5 -33t-16.5 -23.5t-32 -13.5q-34 0 -49.5 15t-15.5 55zM346 561l207 21q-34 125 -72 312 t-43 230q-30 -234 -92 -563z" />
<glyph unicode="&#xc4;" d="M29 440q0 25 17.5 44.5t42 29.5t49 16.5t42.5 8.5l17 2q111 611 155 774q18 69 88 69q25 0 48.5 -21t37.5 -65q24 -67 102.5 -363.5t90.5 -336.5q64 4 125 4q91 0 96 -10q9 -15 -6 -39q-16 -21 -62.5 -43.5t-85.5 -34.5l-38 -12q88 -299 151 -467q13 -35 -12 -61.5 t-64 -26.5q-25 0 -53 37t-52 89.5t-48.5 121t-40 122t-29 102t-14.5 50.5l-271 -31q-7 -34 -18.5 -87.5t-42.5 -161t-55 -146.5q-9 -13 -20.5 -19t-19.5 -6t-19.5 1.5t-14.5 1.5q-31 0 -54.5 20t-13.5 55q28 80 55 162.5t40 124.5l12 43q-5 -1 -14.5 -3t-32.5 -3.5t-41 2.5 t-32.5 18t-14.5 39zM127 1548q0 53 38 88t89 35q52 0 84.5 -33.5t32.5 -83.5q0 -48 -35 -93.5t-82 -45.5q-43 0 -85 46t-42 87zM346 561l207 21q-34 125 -72 312t-43 230q-30 -234 -92 -563zM498 1548q0 60 32.5 96.5t87.5 36.5q56 0 88.5 -42.5t32.5 -100.5 q0 -60 -25.5 -90.5t-84.5 -30.5t-95 36.5t-36 94.5z" />
<glyph unicode="&#xc5;" d="M29 440q0 25 17.5 44.5t42 29.5t49 16.5t42.5 8.5l17 2q99 544 145 735q-81 21 -127.5 77t-46.5 146q0 46 16 97t36 85t36 61t16 30q0 9 -3 22.5t-3 17.5q0 24 25.5 36t52.5 12q32 0 62 -15q319 -195 319 -360q0 -86 -53.5 -139t-136.5 -72q25 -77 95.5 -346t88.5 -330 q64 4 125 4q91 0 96 -10q9 -15 -6 -39q-16 -21 -62.5 -43.5t-85.5 -34.5l-38 -12q88 -299 151 -467q13 -35 -12 -61.5t-64 -26.5q-25 0 -53 37t-52 89.5t-48.5 121t-40 122t-29 102t-14.5 50.5l-271 -31q-7 -34 -18.5 -87.5t-42.5 -161t-55 -146.5q-9 -13 -20.5 -19 t-19.5 -6t-19.5 1.5t-14.5 1.5q-31 0 -54.5 20t-13.5 55q28 80 55 162.5t40 124.5l12 43q-5 -1 -14.5 -3t-32.5 -3.5t-41 2.5t-32.5 18t-14.5 39zM315 1505q0 -36 34.5 -73t88.5 -37q55 0 101.5 37t46.5 92q0 45 -51 102t-95 57q-48 0 -86.5 -63t-38.5 -115zM346 561l207 21 q-34 125 -72 312t-43 230q-30 -234 -92 -563z" />
<glyph unicode="&#xc7;" horiz-adv-x="864" d="M53 336q0 71 12 186.5t41.5 262.5t70.5 272.5t106.5 212t142.5 86.5q59 0 118.5 -72.5t100.5 -173.5t66.5 -204t25.5 -169q0 -41 -19.5 -65.5t-58.5 -24.5q-27 0 -49 11.5t-28 33.5q-7 68 -19 137t-31.5 144.5t-48.5 122.5t-63 47q-52 0 -93.5 -93.5t-63 -222t-32 -232.5 t-10.5 -155v-37t1.5 -41t3.5 -48t7.5 -46t12.5 -46.5t19.5 -38.5t27.5 -33.5t36.5 -20t47.5 -8.5q44 0 90.5 11t84 28t73.5 36.5t64 36t51 27t39 9.5t24 -17q15 -27 -11 -71t-77.5 -87.5t-129 -81t-155.5 -51.5l-37 -129q44 16 88 16q85 0 138 -57.5t53 -142.5 q0 -81 -61.5 -150.5t-142.5 -105t-151 -35.5q-43 0 -87 28t-44 66q0 24 16 30.5t48 6.5t77.5 9t95 27.5t84 53t34.5 78.5q0 30 -23.5 51t-56.5 21q-20 0 -40 -15t-34 -32.5t-34.5 -32.5t-41.5 -15q-32 0 -58 26t-26 60q0 27 11.5 66t30 90t26.5 82q-119 25 -180.5 133.5 t-61.5 245.5z" />
<glyph unicode="&#xc8;" horiz-adv-x="1044" d="M-14 1149q0 88 110 88l119 -2q3 8 9.5 20.5t27.5 32.5t43 19q16 -1 37 -19t34 -36l13 -17q32 0 137 1t168 1q144 0 224 -11t81 -46q2 -44 -51 -56q-90 -16 -202.5 -25.5t-171.5 -11t-204 -4.5q-16 -69 -24.5 -172t-9.5 -171v-68q90 0 213 23t215 59q36 15 80 9.5 t51 -36.5q4 -44 -51.5 -83t-138 -64t-166 -43.5t-142.5 -26.5l-59 -8q0 -7 0.5 -19t3 -46.5t7 -66t14.5 -69.5t23 -65.5t34 -46.5t47 -19q76 0 159 24.5t133 49.5t113 63q50 27 82.5 9t32.5 -52q0 -30 -33 -63q-72 -51 -156 -99t-197 -89.5t-198 -41.5q-55 0 -98.5 39 t-68.5 97.5t-41.5 133.5t-22.5 138t-6 121q0 355 39 573q-1 0 -49.5 -4t-67.5 -4q-39 0 -65.5 23.5t-26.5 60.5zM297 1620q-16 47 15.5 72t76.5 20q26 -4 99.5 -63t138.5 -131.5t65 -106.5q0 -16 -5 -22.5t-23 -6.5q-19 0 -106.5 48t-171.5 107t-89 83z" />
<glyph unicode="&#xc9;" horiz-adv-x="1044" d="M-14 1149q0 88 110 88l119 -2q3 8 9.5 20.5t27.5 32.5t43 19q16 -1 37 -19t34 -36l13 -17q32 0 137 1t168 1q144 0 224 -11t81 -46q2 -44 -51 -56q-90 -16 -202.5 -25.5t-171.5 -11t-204 -4.5q-16 -69 -24.5 -172t-9.5 -171v-68q90 0 213 23t215 59q36 15 80 9.5 t51 -36.5q4 -44 -51.5 -83t-138 -64t-166 -43.5t-142.5 -26.5l-59 -8q0 -7 0.5 -19t3 -46.5t7 -66t14.5 -69.5t23 -65.5t34 -46.5t47 -19q76 0 159 24.5t133 49.5t113 63q50 27 82.5 9t32.5 -52q0 -30 -33 -63q-72 -51 -156 -99t-197 -89.5t-198 -41.5q-55 0 -98.5 39 t-68.5 97.5t-41.5 133.5t-22.5 138t-6 121q0 355 39 573q-1 0 -49.5 -4t-67.5 -4q-39 0 -65.5 23.5t-26.5 60.5zM432 1405q0 34 66 106.5t139.5 131t99.5 63.5q44 7 75 -18t15 -72q-7 -36 -169.5 -140t-194.5 -104q-31 0 -31 33z" />
<glyph unicode="&#xca;" horiz-adv-x="1044" d="M-14 1149q0 88 110 88l119 -2q3 8 9.5 20.5t27.5 32.5t43 19q16 -1 37 -19t34 -36l13 -17q32 0 137 1t168 1q144 0 224 -11t81 -46q2 -44 -51 -56q-90 -16 -202.5 -25.5t-171.5 -11t-204 -4.5q-16 -69 -24.5 -172t-9.5 -171v-68q90 0 213 23t215 59q36 15 80 9.5 t51 -36.5q4 -44 -51.5 -83t-138 -64t-166 -43.5t-142.5 -26.5l-59 -8q0 -7 0.5 -19t3 -46.5t7 -66t14.5 -69.5t23 -65.5t34 -46.5t47 -19q76 0 159 24.5t133 49.5t113 63q50 27 82.5 9t32.5 -52q0 -30 -33 -63q-72 -51 -156 -99t-197 -89.5t-198 -41.5q-55 0 -98.5 39 t-68.5 97.5t-41.5 133.5t-22.5 138t-6 121q0 355 39 573q-1 0 -49.5 -4t-67.5 -4q-39 0 -65.5 23.5t-26.5 60.5zM303 1446q0 43 55 132.5t121.5 161.5t95.5 72q36 0 97.5 -82.5t106 -169.5t44.5 -110q0 -30 -8 -40.5t-31 -10.5q-19 0 -75 54.5t-102 108.5l-46 54 q-170 -205 -207 -221q-20 -6 -35.5 9.5t-15.5 41.5z" />
<glyph unicode="&#xcb;" horiz-adv-x="1044" d="M-14 1149q0 88 110 88l119 -2q3 8 9.5 20.5t27.5 32.5t43 19q16 -1 37 -19t34 -36l13 -17q32 0 137 1t168 1q144 0 224 -11t81 -46q2 -44 -51 -56q-90 -16 -202.5 -25.5t-171.5 -11t-204 -4.5q-16 -69 -24.5 -172t-9.5 -171v-68q90 0 213 23t215 59q36 15 80 9.5 t51 -36.5q4 -44 -51.5 -83t-138 -64t-166 -43.5t-142.5 -26.5l-59 -8q0 -7 0.5 -19t3 -46.5t7 -66t14.5 -69.5t23 -65.5t34 -46.5t47 -19q76 0 159 24.5t133 49.5t113 63q50 27 82.5 9t32.5 -52q0 -30 -33 -63q-72 -51 -156 -99t-197 -89.5t-198 -41.5q-55 0 -98.5 39 t-68.5 97.5t-41.5 133.5t-22.5 138t-6 121q0 355 39 573q-1 0 -49.5 -4t-67.5 -4q-39 0 -65.5 23.5t-26.5 60.5zM252 1522q0 51 39 85.5t88 34.5q50 0 83.5 -33t33.5 -79q0 -49 -35 -95t-82 -46q-43 0 -85 46t-42 87zM625 1522q0 58 32 96.5t84 38.5q57 0 91 -44.5 t34 -103.5q0 -118 -110 -118q-59 0 -95 36.5t-36 94.5z" />
<glyph unicode="&#xcc;" horiz-adv-x="446" d="M-31 1659q-13 45 18 70t74 18q28 -4 103 -63t141 -131.5t66 -106.5q0 -31 -31 -31q-33 0 -197 103.5t-174 140.5zM119 1223q-1 48 22.5 69t59.5 23q32 2 54.5 -11.5t25.5 -41.5q17 -261 49 -1141q1 -47 -28.5 -74t-57.5 -20q-37 1 -57.5 30.5t-22.5 69.5 q-29 453 -45 1096z" />
<glyph unicode="&#xcd;" horiz-adv-x="446" d="M72 1479q0 34 65 106t138.5 130.5t99.5 62.5q43 8 74.5 -16.5t17.5 -73.5q-8 -35 -172 -137.5t-197 -102.5q-16 0 -21 7t-5 24zM119 1223q-1 48 22.5 69t59.5 23q32 2 54.5 -11.5t25.5 -41.5q17 -261 49 -1141q1 -47 -28.5 -74t-57.5 -20q-37 1 -57.5 30.5t-22.5 69.5 q-29 453 -45 1096z" />
<glyph unicode="&#xce;" horiz-adv-x="446" d="M-55 1438q0 44 54.5 133.5t121 162t96.5 72.5q36 0 97.5 -83.5t106 -170.5t44.5 -108q0 -32 -8.5 -42.5t-32.5 -10.5q-19 0 -75.5 54.5t-102.5 108.5l-47 54q-168 -207 -203 -219q-21 -10 -36 5t-15 44zM119 1223q-1 48 22.5 69t59.5 23q32 2 54.5 -11.5t25.5 -41.5 q17 -261 49 -1141q1 -47 -28.5 -74t-57.5 -20q-37 1 -57.5 30.5t-22.5 69.5q-29 453 -45 1096z" />
<glyph unicode="&#xcf;" horiz-adv-x="446" d="M-90 1554q0 54 38 88.5t91 34.5q50 0 82.5 -32.5t32.5 -83.5q0 -49 -35 -95.5t-80 -46.5q-46 0 -87.5 46t-41.5 89zM119 1223q-1 48 22.5 69t59.5 23q32 2 54.5 -11.5t25.5 -41.5q17 -261 49 -1141q1 -47 -28.5 -74t-57.5 -20q-37 1 -57.5 30.5t-22.5 69.5 q-29 453 -45 1096zM281 1554q0 59 32.5 95.5t87.5 36.5q57 0 90 -42t33 -100q0 -121 -110 -121q-61 0 -97 36.5t-36 94.5z" />
<glyph unicode="&#xd0;" horiz-adv-x="1320" d="M-27 639q-1 34 35.5 60t79.5 28q56 0 107 -2q-7 75 -7 133q0 57 7 129q0 65 14 150q-16 2 -51 4t-76 12q-27 8 -43.5 41.5t-5.5 69.5q22 82 123 53q86 -20 161 -39.5t194.5 -56.5t215 -76t201 -96t176 -117.5t116.5 -140t44 -164.5q-1 -75 -29.5 -140t-75 -112.5 t-112 -90t-134.5 -72t-148.5 -58.5t-147.5 -50.5t-139 -47t-116 -48.5q-34 -15 -63 -8q-28 7 -35 55q-44 302 -63 514q-27 -1 -60 -3t-54.5 -3.5t-25.5 -1.5q-36 -7 -58.5 18t-29.5 60zM340 848q0 -23 3 -72.5t3 -56.5q48 0 135 1t90 1q24 0 39 -12t15 -33q4 -27 -1.5 -45 t-21.5 -26.5t-29.5 -12t-37.5 -6.5q-50 -9 -181 -13q21 -207 49 -335q29 8 94.5 23t120.5 29t125.5 36t125 50t103 64.5t75.5 87t28 109.5q3 58 -26.5 112.5t-77.5 96.5t-115.5 80.5t-133.5 65t-139.5 50t-124.5 36t-98 22.5q-9 -49 -14 -135q-6 -111 -6 -117z" />
<glyph unicode="&#xd1;" horiz-adv-x="1073" d="M117 748q0 363 28 415q35 35 68 35q45 3 57 -27q50 -84 156 -320t190 -417t101 -180q33 1 54.5 140t21.5 331q0 276 -48 481q-6 52 12 88t54 39q76 2 107 -106q18 -78 29 -243t11 -255q-2 -55 -6 -110t-13 -143t-25 -161t-39 -142t-58.5 -108.5t-79.5 -39.5 q-41 0 -100 72.5t-115.5 176.5t-111 222.5t-90.5 207t-50 132.5q-4 -90 -4 -140q0 -145 20 -378.5t17 -268.5q-4 -31 -26.5 -50t-55.5 -24q-28 0 -55.5 18.5t-28.5 45.5q-20 287 -20 709zM188 1462q0 35 15 74t41.5 73.5t71 57.5t96.5 23q17 0 31.5 -1.5t28.5 -6.5t24 -8.5 t22 -12.5t18 -13t17.5 -16t15 -15.5t15.5 -17.5t14 -16q17 -21 24.5 -29.5t23 -19t30.5 -10.5q56 0 69 73q1 5 3 15.5t3 15t3.5 12t4.5 11.5t5.5 9t8.5 7.5t11 3.5q70 4 70 -65q0 -220 -190 -220q-19 0 -34.5 2t-31 10t-24 11.5t-23.5 18t-18 17t-20 22.5l-17 20 q-40 45 -58 56q-20 11 -41 11q-29 0 -52 -26t-34 -66q-3 -17 -5 -24.5t-8 -20.5t-16.5 -18.5t-25.5 -5.5q-68 0 -68 69z" />
<glyph unicode="&#xd2;" horiz-adv-x="870" d="M55 578q12 496 183 751q10 15 21.5 24.5t24.5 13t21.5 4.5t24.5 1q39 -1 53 -29t10 -67q0 -26 -16 -45l14 2q12 0 31 -11.5t20 -23.5q62 -79 105 -136.5t99 -145.5t89.5 -161.5t57 -163t22.5 -171.5q-1 -103 -65.5 -194.5t-164.5 -143.5t-206 -51q-67 1 -120.5 26.5 t-88 69.5t-58.5 97t-36 117.5t-17 120.5t-4 116zM74 1683q-16 48 16 72t76 17q26 -3 99.5 -61.5t138.5 -131t65 -106.5q0 -15 -6 -22t-23 -7q-33 0 -196 102t-170 137zM227 510q-1 -51 9.5 -101t32.5 -95.5t62.5 -74.5t92.5 -30q103 -1 159.5 75.5t59.5 182.5 q1 79 -35 172.5t-81 164t-105.5 165.5t-89.5 153q-64 -159 -83 -284.5t-22 -327.5z" />
<glyph unicode="&#xd3;" horiz-adv-x="870" d="M55 578q12 496 183 751q10 15 21.5 24.5t24.5 13t21.5 4.5t24.5 1q39 -1 53 -29t10 -67q0 -26 -16 -45l14 2q12 0 31 -11.5t20 -23.5q62 -79 105 -136.5t99 -145.5t89.5 -161.5t57 -163t22.5 -171.5q-1 -103 -65.5 -194.5t-164.5 -143.5t-206 -51q-67 1 -120.5 26.5 t-88 69.5t-58.5 97t-36 117.5t-17 120.5t-4 116zM170 1503q0 35 65.5 107.5t139.5 131t100 62.5q43 5 75.5 -19.5t18.5 -70.5q-11 -36 -173.5 -138.5t-196.5 -102.5q-17 0 -23 7.5t-6 22.5zM227 510q-1 -51 9.5 -101t32.5 -95.5t62.5 -74.5t92.5 -30q103 -1 159.5 75.5 t59.5 182.5q1 79 -35 172.5t-81 164t-105.5 165.5t-89.5 153q-64 -159 -83 -284.5t-22 -327.5z" />
<glyph unicode="&#xd4;" horiz-adv-x="870" d="M55 578q12 496 183 751q10 15 21.5 24.5t24.5 13t21.5 4.5t24.5 1q39 -1 53 -29t10 -67q0 -26 -16 -45l14 2q12 0 31 -11.5t20 -23.5q62 -79 105 -136.5t99 -145.5t89.5 -161.5t57 -163t22.5 -171.5q-1 -103 -65.5 -194.5t-164.5 -143.5t-206 -51q-67 1 -120.5 26.5 t-88 69.5t-58.5 97t-36 117.5t-17 120.5t-4 116zM80 1423q0 43 55 133.5t121.5 164t95.5 73.5q36 0 97.5 -83.5t106 -171t44.5 -109.5q0 -31 -8 -43.5t-31 -12.5q-18 0 -74.5 54t-103.5 108l-47 55q-168 -203 -205 -219q-21 -6 -36 9t-15 42zM227 510q-1 -51 9.5 -101 t32.5 -95.5t62.5 -74.5t92.5 -30q103 -1 159.5 75.5t59.5 182.5q1 79 -35 172.5t-81 164t-105.5 165.5t-89.5 153q-64 -159 -83 -284.5t-22 -327.5z" />
<glyph unicode="&#xd5;" horiz-adv-x="870" d="M4 1499q0 48 24 99.5t76.5 91t120.5 39.5q37 0 66.5 -8.5t54.5 -29t36 -32t34 -39.5q15 -19 23.5 -28.5t23.5 -19t29 -9.5q54 0 73 73q6 53 18 66q7 7 17 10q31 2 52.5 -15t21.5 -57q0 -102 -48.5 -159.5t-144.5 -57.5q-32 0 -57 7.5t-48 26.5t-32.5 29t-32.5 38 q-21 25 -31 35.5t-28 21t-37 10.5q-30 0 -53.5 -25.5t-32.5 -66.5q-9 -67 -53 -67q-36 0 -54 14.5t-18 52.5zM55 578q12 496 183 751q10 15 21.5 24.5t24.5 13t21.5 4.5t24.5 1q39 -1 53 -29t10 -67q0 -26 -16 -45l14 2q12 0 31 -11.5t20 -23.5q62 -79 105 -136.5t99 -145.5 t89.5 -161.5t57 -163t22.5 -171.5q-1 -103 -65.5 -194.5t-164.5 -143.5t-206 -51q-67 1 -120.5 26.5t-88 69.5t-58.5 97t-36 117.5t-17 120.5t-4 116zM227 510q-1 -51 9.5 -101t32.5 -95.5t62.5 -74.5t92.5 -30q103 -1 159.5 75.5t59.5 182.5q1 79 -35 172.5t-81 164 t-105.5 165.5t-89.5 153q-64 -159 -83 -284.5t-22 -327.5z" />
<glyph unicode="&#xd6;" horiz-adv-x="870" d="M55 578q12 496 183 751q10 15 21.5 24.5t24.5 13t21.5 4.5t24.5 1q39 -1 53 -29t10 -67q0 -26 -16 -45l14 2q12 0 31 -11.5t20 -23.5q62 -79 105 -136.5t99 -145.5t89.5 -161.5t57 -163t22.5 -171.5q-1 -103 -65.5 -194.5t-164.5 -143.5t-206 -51q-67 1 -120.5 26.5 t-88 69.5t-58.5 97t-36 117.5t-17 120.5t-4 116zM78 1579q0 49 39 85t90 36q48 0 80 -35t32 -82q0 -49 -33.5 -94t-78.5 -45q-46 0 -87.5 45.5t-41.5 89.5zM227 510q-1 -51 9.5 -101t32.5 -95.5t62.5 -74.5t92.5 -30q103 -1 159.5 75.5t59.5 182.5q1 79 -35 172.5t-81 164 t-105.5 165.5t-89.5 153q-64 -159 -83 -284.5t-22 -327.5zM446 1579q0 59 34 95t89 36q56 0 88.5 -43.5t32.5 -101.5q0 -119 -112 -119q-59 0 -95.5 36.5t-36.5 96.5z" />
<glyph unicode="&#xd7;" horiz-adv-x="825" d="M109 827q0 31 21 50.5t50 19.5q39 0 81 -42t85.5 -104.5t59.5 -78.5q130 235 194 235q30 0 53 -30t23 -60q0 -38 -25.5 -78t-74 -95.5t-70.5 -88.5q4 -4 32 -31.5t40 -40t38.5 -41t40.5 -47t30.5 -43t24 -45t7.5 -37.5q0 -20 -10.5 -35.5t-28.5 -15.5q-47 0 -88 31 t-89.5 89.5t-72.5 80.5q-3 -5 -21 -36t-29.5 -49t-32.5 -50.5t-36.5 -53.5t-34 -42.5t-34.5 -32.5t-29 -11q-32 0 -58 22.5t-26 51.5q0 26 32 86t87.5 148t56.5 90q-25 32 -82.5 91t-85.5 102t-28 91z" />
<glyph unicode="&#xd8;" horiz-adv-x="870" d="M55 578q12 496 183 751q10 15 21.5 24.5t24.5 13t21.5 4.5t24.5 1q39 -1 53 -29t10 -67q0 -26 -16 -45l14 2q12 0 31 -11.5t20 -23.5q13 -18 46 -59.5t51 -65.5q86 168 133 236q12 25 33 20q32 -3 52 -27.5t17 -56.5q0 -25 -16 -71.5t-32 -82.5t-45 -96.5t-36 -76.5 q173 -279 170 -498q-1 -103 -65.5 -194.5t-164.5 -143.5t-206 -51q-83 0 -148 43q-34 -77 -86 -164q-19 -29 -53 -29q-31 0 -36.5 27.5t1.5 56.5q36 122 74 221q-80 156 -76 392zM227 510q0 -45 4 -68q84 198 99 236q93 183 125 242q-14 22 -42 65.5t-47.5 76t-33.5 60.5 q-64 -159 -83 -284.5t-22 -327.5zM319 246q43 -37 105 -37q103 -1 159.5 75.5t59.5 182.5q0 127 -82 278q-47 -94 -131.5 -270.5t-110.5 -228.5z" />
<glyph unicode="&#xd9;" horiz-adv-x="1126" d="M84 629q0 269 35 581q4 34 27 48t42 14q30 0 57.5 -24t24.5 -56q-18 -240 -18 -479q0 -281 22 -381q10 -30 23 -55.5t33.5 -51t49.5 -40.5t64 -15q69 0 124.5 48.5t87 123.5t48.5 156.5t17 156.5q0 58 1.5 152t3.5 204t3 152q2 33 4.5 51.5t10 36.5t22 25.5t37.5 7.5 q47 0 73.5 -37t24.5 -102q-4 -290 -4 -397q0 -340 28.5 -499t112.5 -159l115 37q14 0 22.5 -16t8.5 -31q-3 -70 -49.5 -112t-120.5 -40q-60 2 -107.5 27t-77 67.5t-47 93.5t-22.5 111q-126 -243 -316 -243q-134 0 -223.5 85t-116.5 230q-20 140 -20 330zM225 1620 q-11 47 20 72t74 20q27 -4 101.5 -63t140.5 -131.5t66 -106.5q0 -16 -6.5 -22.5t-24.5 -6.5q-34 0 -197 100.5t-174 137.5z" />
<glyph unicode="&#xda;" horiz-adv-x="1126" d="M84 629q0 269 35 581q4 34 27 48t42 14q30 0 57.5 -24t24.5 -56q-18 -240 -18 -479q0 -281 22 -381q10 -30 23 -55.5t33.5 -51t49.5 -40.5t64 -15q69 0 124.5 48.5t87 123.5t48.5 156.5t17 156.5q0 58 1.5 152t3.5 204t3 152q2 33 4.5 51.5t10 36.5t22 25.5t37.5 7.5 q47 0 73.5 -37t24.5 -102q-4 -290 -4 -397q0 -340 28.5 -499t112.5 -159l115 37q14 0 22.5 -16t8.5 -31q-3 -70 -49.5 -112t-120.5 -40q-60 2 -107.5 27t-77 67.5t-47 93.5t-22.5 111q-126 -243 -316 -243q-134 0 -223.5 85t-116.5 230q-20 140 -20 330zM356 1417 q0 35 66.5 108t141 131.5t100.5 61.5q44 7 75 -17t21 -71q-13 -36 -176.5 -138.5t-194.5 -102.5q-19 0 -26 6.5t-7 21.5z" />
<glyph unicode="&#xdb;" horiz-adv-x="1126" d="M84 629q0 269 35 581q4 34 27 48t42 14q30 0 57.5 -24t24.5 -56q-18 -240 -18 -479q0 -281 22 -381q10 -30 23 -55.5t33.5 -51t49.5 -40.5t64 -15q69 0 124.5 48.5t87 123.5t48.5 156.5t17 156.5q0 58 1.5 152t3.5 204t3 152q2 33 4.5 51.5t10 36.5t22 25.5t37.5 7.5 q47 0 73.5 -37t24.5 -102q-4 -290 -4 -397q0 -340 28.5 -499t112.5 -159l115 37q14 0 22.5 -16t8.5 -31q-3 -70 -49.5 -112t-120.5 -40q-60 2 -107.5 27t-77 67.5t-47 93.5t-22.5 111q-126 -243 -316 -243q-134 0 -223.5 85t-116.5 230q-20 140 -20 330zM238 1432 q0 43 54 133t120 163.5t98 73.5q36 0 98 -84t107 -171.5t45 -108.5q0 -31 -10 -41.5t-33 -10.5q-18 0 -74.5 54.5t-103.5 109.5l-47 54q-168 -210 -203 -220q-20 -10 -35.5 5t-15.5 43z" />
<glyph unicode="&#xdc;" horiz-adv-x="1126" d="M84 629q0 269 35 581q4 34 27 48t42 14q30 0 57.5 -24t24.5 -56q-18 -240 -18 -479q0 -281 22 -381q10 -30 23 -55.5t33.5 -51t49.5 -40.5t64 -15q69 0 124.5 48.5t87 123.5t48.5 156.5t17 156.5q0 58 1.5 152t3.5 204t3 152q2 33 4.5 51.5t10 36.5t22 25.5t37.5 7.5 q47 0 73.5 -37t24.5 -102q-4 -290 -4 -397q0 -340 28.5 -499t112.5 -159l115 37q14 0 22.5 -16t8.5 -31q-3 -70 -49.5 -112t-120.5 -40q-60 2 -107.5 27t-77 67.5t-47 93.5t-22.5 111q-126 -243 -316 -243q-134 0 -223.5 85t-116.5 230q-20 140 -20 330zM219 1536 q0 53 38.5 89t90.5 36q50 0 82.5 -34.5t32.5 -86.5q0 -48 -34 -93.5t-81 -45.5q-43 0 -86 46.5t-43 88.5zM592 1536q0 59 32.5 95t88.5 36t89.5 -43.5t33.5 -99.5q0 -119 -115 -119q-58 0 -93.5 36t-35.5 95z" />
<glyph unicode="&#xdd;" horiz-adv-x="823" d="M-49 1159q-10 30 4 58t51 28q55 0 90 -51q36 -50 126.5 -208t139.5 -224q20 81 55.5 179t85 200.5t104.5 186.5t118 138t119 54q34 0 35 -36.5t-25 -70.5q-159 -242 -241 -423t-111 -363q-15 -123 -15 -256q0 -82 7.5 -293t7.5 -346q0 -34 -16 -61t-54 -27q-81 0 -88 90 q-32 268 -41 446q0 12 -2 69t-3.5 81t-6 67.5t-10.5 77.5q-13 86 -55.5 181.5t-88.5 168t-101 167.5t-85 167zM170 1419q0 35 65.5 108t139.5 131.5t100 61.5q43 7 75.5 -17t18.5 -71q-11 -36 -173.5 -138.5t-196.5 -102.5q-18 0 -23.5 6.5t-5.5 21.5z" />
<glyph unicode="&#xde;" horiz-adv-x="1085" d="M90 291q-7 30 90 100q-14 265 -47 694q-2 75 -7.5 200.5t-6.5 146.5q-3 63 20 96.5t60 36.5q43 8 80.5 -28.5t37.5 -88.5q0 -174 -2 -274q84 -12 175 -32.5t197 -55.5t188.5 -77.5t139 -102t58.5 -124.5q3 -64 -20 -121.5t-58.5 -100.5t-93.5 -83t-109 -66t-123 -53 t-116 -40t-107 -31t-79 -23q4 -49 6 -72t4 -33t7.5 -50.5t12.5 -106.5q6 -61 -16.5 -94t-75.5 -29q-39 0 -65.5 28.5t-26.5 74.5q-2 52 -11 125.5t-14 132.5q-8 2 -28 6t-27 6t-18.5 7t-17 13t-7.5 19zM319 1006q-1 -106 14 -323t17 -253q24 5 58 12.5t88.5 23.5t106.5 35.5 t107.5 47.5t96.5 58.5t68 71t28 83.5q2 39 -60 80t-157 73t-191 55.5t-176 35.5z" />
<glyph unicode="&#xdf;" horiz-adv-x="890" d="M82 700q0 66 10 133.5t35.5 137.5t63.5 124t98 88t135 34q101 0 164 -59t63 -146q0 -40 -15.5 -77t-44.5 -68.5t-51 -50.5t-55 -44q324 -59 324 -315q0 -58 -22.5 -132.5t-60 -143t-95 -116t-119.5 -47.5q-42 0 -83.5 33t-41.5 76q0 10 4.5 13t14.5 5q115 36 186.5 108 t71.5 185q0 189 -273 189q-49 0 -75.5 29.5t-26.5 78.5q0 56 23 82.5t79 50.5q30 14 57 52t27 69q0 49 -72 49q-58 0 -99 -31.5t-61 -83.5t-28 -102t-8 -104l63 -467q0 -25 -20.5 -40t-50.5 -15q-64 0 -74 73q-43 298 -43 432z" />
<glyph unicode="&#xe0;" horiz-adv-x="774" d="M55 424q6 43 16.5 93.5t32.5 116.5t48.5 118t67 88.5t85.5 36.5q148 0 230 -136q6 -10 34.5 -3.5t42.5 -0.5q33 -21 33 -69q0 -17 -5 -45.5t-5 -32.5q-7 -113 12.5 -203.5t69.5 -208.5q7 -27 0.5 -53.5t-15.5 -32.5q-18 -12 -48.5 -12.5t-41.5 8.5q-45 36 -86 103.5 t-47 113.5q-77 -150 -82 -160q-31 -47 -77 -81t-97 -31q-52 6 -89 52.5t-53.5 111t-22.5 123.5t-3 104zM90 1210q-11 49 19 73t73 17q28 -4 102 -63t139.5 -131.5t65.5 -106.5q0 -14 -5.5 -20t-22.5 -6q-20 0 -108.5 48t-172.5 106.5t-90 82.5zM190 332q0 -56 15 -94t45 -37 q33 0 72 65.5t65.5 159t26.5 170.5v63q-2 24 -23.5 50.5t-44.5 27.5q-74 0 -133 -241q-6 -17 -14.5 -67.5t-8.5 -96.5z" />
<glyph unicode="&#xe1;" horiz-adv-x="774" d="M55 424q6 43 16.5 93.5t32.5 116.5t48.5 118t67 88.5t85.5 36.5q148 0 230 -136q6 -10 34.5 -3.5t42.5 -0.5q33 -21 33 -69q0 -17 -5 -45.5t-5 -32.5q-7 -113 12.5 -203.5t69.5 -208.5q7 -27 0.5 -53.5t-15.5 -32.5q-18 -12 -48.5 -12.5t-41.5 8.5q-45 36 -86 103.5 t-47 113.5q-77 -150 -82 -160q-31 -47 -77 -81t-97 -31q-52 6 -89 52.5t-53.5 111t-22.5 123.5t-3 104zM121 999q0 34 65.5 106.5t139.5 131.5t100 63q45 7 76.5 -17t17.5 -73q-10 -35 -173 -136t-195 -101q-31 0 -31 26zM190 332q0 -56 15 -94t45 -37q33 0 72 65.5 t65.5 159t26.5 170.5v63q-2 24 -23.5 50.5t-44.5 27.5q-74 0 -133 -241q-6 -17 -14.5 -67.5t-8.5 -96.5z" />
<glyph unicode="&#xe2;" horiz-adv-x="774" d="M55 424q6 43 16.5 93.5t32.5 116.5t48.5 118t67 88.5t85.5 36.5q148 0 230 -136q6 -10 34.5 -3.5t42.5 -0.5q33 -21 33 -69q0 -17 -5 -45.5t-5 -32.5q-7 -113 12.5 -203.5t69.5 -208.5q7 -27 0.5 -53.5t-15.5 -32.5q-18 -12 -48.5 -12.5t-41.5 8.5q-45 36 -86 103.5 t-47 113.5q-77 -150 -82 -160q-31 -47 -77 -81t-97 -31q-52 6 -89 52.5t-53.5 111t-22.5 123.5t-3 104zM127 1038q0 42 54.5 132.5t121 164.5t96.5 74q36 0 97.5 -83.5t106 -172t44.5 -111.5q0 -30 -9 -40.5t-34 -10.5q-16 0 -72 54.5t-104 108.5l-47 54 q-166 -207 -203 -219q-20 -8 -35.5 6.5t-15.5 42.5zM190 332q0 -56 15 -94t45 -37q33 0 72 65.5t65.5 159t26.5 170.5v63q-2 24 -23.5 50.5t-44.5 27.5q-74 0 -133 -241q-6 -17 -14.5 -67.5t-8.5 -96.5z" />
<glyph unicode="&#xe3;" horiz-adv-x="774" d="M35 1114q0 34 14.5 72.5t40.5 73.5t70 58t96 23q90 0 153 -67q8 -9 35 -41q3 -3 10 -11.5t10 -12t9.5 -10.5t11.5 -10.5t11 -7.5t12.5 -5.5t13.5 -1.5q26 0 46 20.5t26 54.5q6 50 18 62q7 8 19 10q29 4 50 -11.5t21 -54.5q0 -104 -47 -161.5t-143 -57.5q-43 0 -77.5 17 t-50 34t-40.5 50q-4 5 -18 20t-19.5 20t-16.5 14t-22 12t-24 3q-27 0 -51 -26.5t-33 -65.5q-14 -72 -58 -72q-35 0 -51 16t-16 56zM55 424q6 43 16.5 93.5t32.5 116.5t48.5 118t67 88.5t85.5 36.5q148 0 230 -136q6 -10 34.5 -3.5t42.5 -0.5q33 -21 33 -69q0 -17 -5 -45.5 t-5 -32.5q-7 -113 12.5 -203.5t69.5 -208.5q7 -27 0.5 -53.5t-15.5 -32.5q-18 -12 -48.5 -12.5t-41.5 8.5q-45 36 -86 103.5t-47 113.5q-77 -150 -82 -160q-31 -47 -77 -81t-97 -31q-52 6 -89 52.5t-53.5 111t-22.5 123.5t-3 104zM190 332q0 -56 15 -94t45 -37q33 0 72 65.5 t65.5 159t26.5 170.5v63q-2 24 -23.5 50.5t-44.5 27.5q-74 0 -133 -241q-6 -17 -14.5 -67.5t-8.5 -96.5z" />
<glyph unicode="&#xe4;" horiz-adv-x="778" d="M55 424q6 43 16.5 93.5t32.5 116.5t48.5 118t67 88.5t85.5 36.5q148 0 230 -136q6 -10 34.5 -3.5t42.5 -0.5q33 -21 33 -69q0 -17 -5 -45.5t-5 -32.5q-7 -113 12.5 -203.5t69.5 -208.5q7 -27 0.5 -53.5t-15.5 -32.5q-18 -12 -48.5 -12.5t-41.5 8.5q-45 36 -86 103.5 t-47 113.5q-77 -150 -82 -160q-31 -47 -77 -81t-97 -31q-52 6 -89 52.5t-53.5 111t-22.5 123.5t-3 104zM82 1153q0 52 39 87.5t92 35.5q47 0 80 -34.5t33 -82.5t-34.5 -93.5t-78.5 -45.5q-45 0 -88 45.5t-43 87.5zM190 332q0 -56 15 -94t45 -37q33 0 72 65.5t65.5 159 t26.5 170.5v63q-2 24 -23.5 50.5t-44.5 27.5q-74 0 -133 -241q-6 -17 -14.5 -67.5t-8.5 -96.5zM455 1153q0 59 31.5 95t86.5 36q56 0 89.5 -42.5t33.5 -98.5q0 -121 -110 -121q-60 0 -95.5 36t-35.5 95z" />
<glyph unicode="&#xe5;" horiz-adv-x="774" d="M55 424q6 43 16.5 93.5t32.5 116.5t48.5 118t67 88.5t85.5 36.5q148 0 230 -136q6 -10 34.5 -3.5t42.5 -0.5q33 -21 33 -69q0 -17 -5 -45.5t-5 -32.5q-7 -113 12.5 -203.5t69.5 -208.5q7 -27 0.5 -53.5t-15.5 -32.5q-18 -12 -48.5 -12.5t-41.5 8.5q-45 36 -86 103.5 t-47 113.5q-77 -150 -82 -160q-31 -47 -77 -81t-97 -31q-52 6 -89 52.5t-53.5 111t-22.5 123.5t-3 104zM55 1202q0 46 17.5 97t38 84.5t38 60.5t17.5 31q0 8 -5 22t-5 21q0 21 25.5 33t49.5 12q19 0 68 -17q317 -192 317 -360q0 -57 -25.5 -101t-67.5 -69.5t-91 -38 t-102 -12.5q-120 0 -197.5 60t-77.5 177zM190 332q0 -56 15 -94t45 -37q33 0 72 65.5t65.5 159t26.5 170.5v63q-2 24 -23.5 50.5t-44.5 27.5q-74 0 -133 -241q-6 -17 -14.5 -67.5t-8.5 -96.5zM207 1208q0 -36 34.5 -73t86.5 -37q56 0 101.5 36t45.5 93q0 44 -50.5 101.5 t-94.5 57.5q-47 0 -85 -62.5t-38 -115.5z" />
<glyph unicode="&#xe7;" horiz-adv-x="778" d="M53 455q0 100 60 194t155 151.5t193 57.5q94 0 162.5 -57.5t68.5 -149.5q0 -11 -10.5 -22t-26.5 -11q-27 0 -50 13.5t-38 30t-42.5 30t-63.5 13.5q-95 0 -173.5 -85t-78.5 -182q0 -70 33.5 -123t89 -81.5t116.5 -42t127 -13.5q63 0 115 10q28 5 47 -11t11 -46 q-7 -37 -83.5 -56.5t-152.5 -19.5h-27q0 -22 -10.5 -61.5t-21.5 -68.5l-11 -29q58 14 86 14q86 0 138.5 -58.5t52.5 -146.5q0 -61 -36 -116t-90 -91.5t-114.5 -58t-111.5 -21.5q-43 0 -86 26.5t-43 66.5q0 17 9 25t19.5 9.5t32.5 1.5q33 0 77.5 9t94.5 27.5t84.5 54 t34.5 81.5q0 26 -24 46t-56 20l-150 -90q-33 0 -58.5 25.5t-25.5 58.5q0 37 36 139.5t38 155.5q-297 65 -297 381z" />
<glyph unicode="&#xe8;" horiz-adv-x="714" d="M53 344q0 92 29 191t76.5 179.5t112.5 132.5t132 52q47 0 87.5 -20.5t68 -53t47.5 -73.5t29.5 -82.5t9.5 -79.5q0 -70 -26.5 -120.5t-74 -79t-105 -41.5t-128.5 -13q-34 0 -104 8q0 -84 48 -136.5t134 -66.5q15 -2 52 -5t61 -7t51.5 -12.5t42 -26.5t14.5 -45 q0 -17 -16 -28.5t-41.5 -16.5t-44 -6.5t-37.5 -1.5q-87 0 -160.5 20t-132.5 61t-92 110.5t-33 160.5zM217 1237q-14 49 16.5 74t73.5 18q45 -9 177 -130t132 -171q0 -16 -6 -23.5t-24 -7.5q-33 0 -197.5 102.5t-171.5 137.5zM221 496q56 -11 105 -11q122 0 159 54 q13 13 15 44t-5.5 63t-28 56.5t-48.5 24.5q-40 0 -75 -24t-59 -63.5t-38 -73t-25 -70.5z" />
<glyph unicode="&#xe9;" horiz-adv-x="714" d="M53 344q0 92 29 191t76.5 179.5t112.5 132.5t132 52q47 0 87.5 -20.5t68 -53t47.5 -73.5t29.5 -82.5t9.5 -79.5q0 -70 -26.5 -120.5t-74 -79t-105 -41.5t-128.5 -13q-34 0 -104 8q0 -84 48 -136.5t134 -66.5q15 -2 52 -5t61 -7t51.5 -12.5t42 -26.5t14.5 -45 q0 -17 -16 -28.5t-41.5 -16.5t-44 -6.5t-37.5 -1.5q-87 0 -160.5 20t-132.5 61t-92 110.5t-33 160.5zM219 1028q0 50 130 171t175 130q43 7 75 -18t19 -74q-11 -36 -173.5 -138t-194.5 -102q-19 0 -25 7t-6 24zM221 496q56 -11 105 -11q122 0 159 54q13 13 15 44t-5.5 63 t-28 56.5t-48.5 24.5q-40 0 -75 -24t-59 -63.5t-38 -73t-25 -70.5z" />
<glyph unicode="&#xea;" horiz-adv-x="733" d="M53 344q0 92 29 191t76.5 179.5t112.5 132.5t132 52q47 0 87.5 -20.5t68 -53t47.5 -73.5t29.5 -82.5t9.5 -79.5q0 -70 -26.5 -120.5t-74 -79t-105 -41.5t-128.5 -13q-34 0 -104 8q0 -84 48 -136.5t134 -66.5q15 -2 52 -5t61 -7t51.5 -12.5t42 -26.5t14.5 -45 q0 -17 -16 -28.5t-41.5 -16.5t-44 -6.5t-37.5 -1.5q-87 0 -160.5 20t-132.5 61t-92 110.5t-33 160.5zM141 1038q0 42 55.5 132.5t122.5 164.5t97 74q36 0 97.5 -83.5t106 -172t44.5 -111.5q0 -30 -9 -40.5t-30 -10.5q-19 0 -75.5 54.5t-103.5 108.5l-47 54 q-171 -207 -204 -219q-21 -8 -37.5 7t-16.5 42zM221 496q56 -11 105 -11q122 0 159 54q13 13 15 44t-5.5 63t-28 56.5t-48.5 24.5q-40 0 -75 -24t-59 -63.5t-38 -73t-25 -70.5z" />
<glyph unicode="&#xeb;" horiz-adv-x="811" d="M53 344q0 92 29 191t76.5 179.5t112.5 132.5t132 52q47 0 87.5 -20.5t68 -53t47.5 -73.5t29.5 -82.5t9.5 -79.5q0 -70 -26.5 -120.5t-74 -79t-105 -41.5t-128.5 -13q-34 0 -104 8q0 -84 48 -136.5t134 -66.5q15 -2 52 -5t61 -7t51.5 -12.5t42 -26.5t14.5 -45 q0 -17 -16 -28.5t-41.5 -16.5t-44 -6.5t-37.5 -1.5q-87 0 -160.5 20t-132.5 61t-92 110.5t-33 160.5zM98 1153q0 51 39.5 87t87.5 36q53 0 86 -34t33 -83t-34.5 -94t-84.5 -45q-42 0 -84.5 45.5t-42.5 87.5zM221 496q56 -11 105 -11q122 0 159 54q13 13 15 44t-5.5 63 t-28 56.5t-48.5 24.5q-40 0 -75 -24t-59 -63.5t-38 -73t-25 -70.5zM469 1153q0 59 33 95t90 36t90 -42t33 -99q0 -121 -115 -121q-58 0 -94.5 36t-36.5 95z" />
<glyph unicode="&#xec;" horiz-adv-x="432" d="M4 1237q-13 49 19 74t75 18q45 -9 175 -130t130 -171q0 -17 -5.5 -24t-22.5 -7q-33 0 -197 102t-174 138zM137 440q3 185 27 316q1 13 19 21.5t38 6.5q28 0 48 -17t20 -46q-8 -71 -8 -168q0 -247 67 -455q17 -59 -43 -73q-25 -12 -47.5 -6t-34.5 28q-42 78 -66.5 191.5 t-19.5 201.5z" />
<glyph unicode="&#xed;" horiz-adv-x="432" d="M29 1028q0 33 65 105.5t138.5 131.5t99.5 64q45 7 76 -18t18 -74q-6 -24 -90 -83t-172.5 -108t-108.5 -49q-16 0 -21 7t-5 24zM102 440q2 119 27 316q1 13 20.5 21.5t38.5 6.5q28 0 47 -17t19 -46q-4 -106 -4 -168q0 -253 65 -455q17 -58 -43 -73q-23 -12 -46.5 -6 t-35.5 28q-43 77 -67 190t-21 203z" />
<glyph unicode="&#xee;" horiz-adv-x="495" d="M-29 1038q0 42 55.5 132.5t122.5 164.5t97 74q36 0 98 -83.5t107 -172t45 -111.5q0 -30 -8.5 -40.5t-32.5 -10.5q-18 0 -75 54.5t-105 108.5l-48 54q-169 -207 -200 -219q-22 -8 -39 7t-17 42zM145 440q11 208 27 316q1 13 20.5 21.5t38.5 6.5q29 0 48.5 -16.5 t19.5 -46.5q-4 -106 -4 -168q0 -266 61 -455q11 -29 -0.5 -48t-38.5 -25q-26 -12 -48 -6t-31 28q-45 76 -70.5 189t-22.5 204z" />
<glyph unicode="&#xef;" horiz-adv-x="491" d="M-72 1153q0 51 40.5 87t88.5 36q52 0 84.5 -34t32.5 -83q0 -50 -33.5 -94.5t-83.5 -44.5q-42 0 -85.5 45.5t-43.5 87.5zM170 440q3 163 25 316q1 13 19.5 21.5t39.5 6.5q29 0 47 -16.5t18 -46.5q-4 -106 -4 -168q0 -256 64 -455q10 -29 -1.5 -48t-37.5 -25 q-26 -12 -50 -6t-34 28q-42 76 -65.5 189t-20.5 204zM303 1153q0 59 33 95t88 36q56 0 89.5 -42.5t33.5 -98.5q0 -121 -111 -121q-61 0 -97 36t-36 95z" />
<glyph unicode="&#xf0;" horiz-adv-x="960" d="M53 305q0 96 58.5 172t147.5 114t187 38q118 0 228 -56q3 201 -88 385q-108 -69 -125 -86q-35 -18 -66.5 -8t-48.5 35q-19 31 -3 69t54 66q4 2 38 23t63 35q-53 66 -146 131q-35 21 -35 53q0 29 26 51.5t60 30.5q33 4 58 -15q106 -70 186 -169q31 19 71.5 42t66.5 37.5 t32 18.5q42 23 70 -15q17 -21 21 -39t-5.5 -33t-20 -25.5t-30.5 -24.5q-9 -6 -50 -35.5t-69 -48.5q132 -241 129 -559q-4 -153 -62 -275t-169 -195t-256 -73q-144 0 -233 100t-89 256zM199 272q0 -86 53 -130t139 -44q39 0 82.5 19.5t84.5 55.5t70.5 96.5t35.5 133.5 q-10 8 -28.5 19t-77 30t-118.5 19q-47 0 -87 -9.5t-76 -30.5t-57 -61.5t-21 -97.5z" />
<glyph unicode="&#xf1;" horiz-adv-x="894" d="M84 813q-1 23 18 41t39 18q32 0 54 -16.5t26 -46.5q49 -251 47 -385q16 25 34.5 79t36.5 105t43.5 101t65.5 81t91 31q64 0 88 -67q16 -57 34 -152.5t31 -154t44.5 -123.5t78.5 -105q6 -6 24 -21.5t23.5 -21t15.5 -17t13.5 -20t3.5 -18.5q0 -30 -25 -49t-55 -19 q-47 0 -97.5 35t-82.5 78q-34 49 -57 116.5t-32.5 127t-15.5 112.5t-12.5 84t-17.5 31q-24 0 -51.5 -59.5t-50.5 -136.5t-57 -170.5t-65 -143.5q-9 -24 -36 -45t-52 -21q-24 0 -46.5 29t-24.5 53q-13 63 -13 123l5 123q0 190 -25 424zM98 1114q0 34 14.5 72.5t40.5 73.5 t70 58t96 23q45 0 82 -16t56.5 -35t44.5 -47q5 -7 8 -10q39 -59 76 -59q26 0 44.5 20t24.5 55q1 3 2 11t1.5 11.5t2 10.5t3 10t3.5 8t4 7.5t5 6t7 5t9 2.5q31 4 52.5 -11.5t21.5 -54.5q0 -104 -48.5 -161.5t-144.5 -57.5q-31 0 -56.5 7.5t-47.5 26t-33 30t-33 37.5 q-1 1 -9.5 11t-10 12t-8.5 10t-10 10t-10 8t-11.5 8t-11 5t-13.5 4t-14 1q-27 0 -49 -26t-35 -66q-9 -72 -53 -72q-34 0 -52 16.5t-18 55.5z" />
<glyph unicode="&#xf2;" horiz-adv-x="686" d="M54.5 356q0.5 29 0.5 58v32q0 42 4.5 83.5t15 91.5t31 92t49.5 77t74 55.5t101 20.5q69 0 128.5 -47.5t95.5 -117.5t56.5 -144t20.5 -133q0 -91 -46 -178t-128 -144t-176 -57q-37 0 -67.5 7t-53 19.5t-40 30.5t-28 40t-18.5 47t-11.5 52.5t-6 56.5t-2 58zM109 1237 q-13 49 18.5 74t73.5 18q45 -9 177 -130t132 -171q0 -31 -31 -31q-33 0 -196 102t-174 138zM188 389q0 -36 2 -59t9.5 -54t27 -47t49.5 -16q98 0 161 76t63 174q0 52 -21 113t-64 109t-96 48q-35 0 -61 -30t-41 -80.5t-22 -109.5t-7 -124z" />
<glyph unicode="&#xf3;" horiz-adv-x="686" d="M54.5 356q0.5 29 0.5 58v32q0 42 4.5 83.5t15 91.5t31 92t49.5 77t74 55.5t101 20.5q69 0 128.5 -47.5t95.5 -117.5t56.5 -144t20.5 -133q0 -91 -46 -178t-128 -144t-176 -57q-37 0 -67.5 7t-53 19.5t-40 30.5t-28 40t-18.5 47t-11.5 52.5t-6 56.5t-2 58zM166 1028 q0 33 65 105.5t138.5 131.5t99.5 64q44 7 75.5 -18t20.5 -74q-11 -35 -175 -137.5t-195 -102.5q-18 0 -23.5 7.5t-5.5 23.5zM188 389q0 -36 2 -59t9.5 -54t27 -47t49.5 -16q98 0 161 76t63 174q0 52 -21 113t-64 109t-96 48q-35 0 -61 -30t-41 -80.5t-22 -109.5t-7 -124z " />
<glyph unicode="&#xf4;" horiz-adv-x="686" d="M54.5 356q0.5 29 0.5 58v32q0 42 4.5 83.5t15 91.5t31 92t49.5 77t74 55.5t101 20.5q69 0 128.5 -47.5t95.5 -117.5t56.5 -144t20.5 -133q0 -91 -46 -178t-128 -144t-176 -57q-37 0 -67.5 7t-53 19.5t-40 30.5t-28 40t-18.5 47t-11.5 52.5t-6 56.5t-2 58zM61 1038 q0 42 55.5 132.5t122.5 164.5t97 74q36 0 98 -83.5t107 -172t45 -111.5q0 -30 -9 -40.5t-32 -10.5q-19 0 -75.5 54.5t-103.5 108.5l-47 54q-167 -207 -202 -219q-22 -8 -39 7t-17 42zM188 389q0 -36 2 -59t9.5 -54t27 -47t49.5 -16q98 0 161 76t63 174q0 52 -21 113t-64 109 t-96 48q-35 0 -61 -30t-41 -80.5t-22 -109.5t-7 -124z" />
<glyph unicode="&#xf5;" horiz-adv-x="686" d="M-4 1114q0 47 24 98t76.5 90t120.5 39q34 0 61.5 -7.5t51 -26t34 -29t32.5 -37.5q5 -5 7 -8q2 -2 13 -15.5t15 -17.5t13.5 -12t18 -11t18.5 -3q27 0 46.5 20t23.5 55q7 66 41 72q29 4 49.5 -11.5t20.5 -54.5q0 -104 -48.5 -161.5t-144.5 -57.5q-19 0 -34.5 2t-31 10 t-24 11.5t-23.5 18t-18 17t-20 22.5l-17 20q-2 3 -12.5 14.5t-13.5 15t-12 12t-14 11.5t-13.5 8t-17 6.5t-17.5 1.5q-26 0 -49.5 -26.5t-32.5 -65.5q-9 -72 -58 -72q-34 0 -49.5 16t-15.5 56zM54.5 356q0.5 29 0.5 58v32q0 42 4.5 83.5t15 91.5t31 92t49.5 77t74 55.5 t101 20.5q69 0 128.5 -47.5t95.5 -117.5t56.5 -144t20.5 -133q0 -91 -46 -178t-128 -144t-176 -57q-37 0 -67.5 7t-53 19.5t-40 30.5t-28 40t-18.5 47t-11.5 52.5t-6 56.5t-2 58zM188 389q0 -36 2 -59t9.5 -54t27 -47t49.5 -16q98 0 161 76t63 174q0 52 -21 113t-64 109 t-96 48q-35 0 -61 -30t-41 -80.5t-22 -109.5t-7 -124z" />
<glyph unicode="&#xf6;" horiz-adv-x="686" d="M35 1153q0 51 39.5 87t91.5 36q48 0 79 -34t31 -83t-33 -94t-77 -45q-46 0 -88.5 45t-42.5 88zM54.5 356q0.5 29 0.5 58v32q0 42 4.5 83.5t15 91.5t31 92t49.5 77t74 55.5t101 20.5q69 0 128.5 -47.5t95.5 -117.5t56.5 -144t20.5 -133q0 -91 -46 -178t-128 -144t-176 -57 q-37 0 -67.5 7t-53 19.5t-40 30.5t-28 40t-18.5 47t-11.5 52.5t-6 56.5t-2 58zM188 389q0 -36 2 -59t9.5 -54t27 -47t49.5 -16q98 0 161 76t63 174q0 52 -21 113t-64 109t-96 48q-35 0 -61 -30t-41 -80.5t-22 -109.5t-7 -124zM406 1153q0 59 33 95t87 36q56 0 89.5 -42.5 t33.5 -98.5q0 -121 -108 -121q-60 0 -97.5 36.5t-37.5 94.5z" />
<glyph unicode="&#xf7;" horiz-adv-x="821" d="M109 575q0 57 57 72q89 28 242 48t223 20q37 0 56.5 -12t25.5 -41q3 -31 -8.5 -47.5t-40.5 -24.5q-82 -32 -238 -61t-207 -29q-42 0 -76 19t-34 56zM254 977q0 50 25 91.5t73 41.5q57 0 95 -52.5t38 -111.5q0 -45 -30.5 -77.5t-75.5 -32.5q-56 0 -90.5 41t-34.5 100z M350 289q0 56 35 98.5t90 42.5q46 0 74.5 -33.5t28.5 -79.5q0 -59 -37.5 -110t-94.5 -51q-47 0 -71.5 40.5t-24.5 92.5z" />
<glyph unicode="&#xf8;" horiz-adv-x="686" d="M43 6q4 17 11.5 38.5t19.5 49.5t18 45q-24 40 -30.5 90.5t-6.5 126.5v90q0 42 4.5 83.5t15 91.5t31 92t49.5 77t74 55.5t101 20.5q67 0 127 -47q46 72 67 101q13 19 27 16q23 -4 37 -24t12 -44q-7 -50 -59 -141q41 -70 65.5 -154.5t24.5 -148.5q0 -91 -46 -178t-128 -144 t-176 -57q-69 0 -113 21q-9 -12 -30.5 -46t-35.5 -53q-15 -21 -36 -18q-42 2 -23 57zM188 344q9 15 78 145q11 20 54 97t69 125q-40 22 -70 22q-35 0 -61 -30t-41 -80.5t-22 -109.5t-7 -124v-45zM252 215q10 -2 24 -2q98 0 161 76t63 174q0 56 -33 137q-41 -69 -112.5 -200 t-102.5 -185z" />
<glyph unicode="&#xf9;" d="M84 333.5v53.5q0 271 41 369q5 20 23 36.5t42 16.5q29 0 45.5 -20.5t16.5 -47.5q0 -47 -7 -181t-7 -204q0 -81 19.5 -154t53.5 -73q52 0 95.5 51.5t70 128.5t51.5 167t43 167t42 128.5t51 51.5q52 0 71 -32t19 -91q0 -14 -3 -74.5t-3 -103.5q0 -383 147 -383q31 0 56 16 t32 17q17 6 31 -6.5t14 -26.5q0 -63 -57.5 -94t-128.5 -31q-51 0 -91 23t-63 57.5t-37.5 81.5t-19.5 87t-6 81q-20 -66 -49 -127t-71 -120.5t-100.5 -95.5t-123.5 -36q-32 0 -58.5 10t-45.5 25.5t-34.5 42t-25 49.5t-16 59t-10 60.5t-5.5 63.5t-2 58.5zM170 1237 q-13 49 19 74t75 18q26 -5 100 -64t139.5 -131.5t65.5 -105.5q0 -17 -5.5 -24t-22.5 -7q-20 0 -108.5 49t-172.5 108t-90 83z" />
<glyph unicode="&#xfa;" d="M84 333.5v53.5q0 271 41 369q5 20 23 36.5t42 16.5q29 0 45.5 -20.5t16.5 -47.5q0 -47 -7 -181t-7 -204q0 -81 19.5 -154t53.5 -73q52 0 95.5 51.5t70 128.5t51.5 167t43 167t42 128.5t51 51.5q52 0 71 -32t19 -91q0 -14 -3 -74.5t-3 -103.5q0 -383 147 -383q31 0 56 16 t32 17q17 6 31 -6.5t14 -26.5q0 -63 -57.5 -94t-128.5 -31q-51 0 -91 23t-63 57.5t-37.5 81.5t-19.5 87t-6 81q-20 -66 -49 -127t-71 -120.5t-100.5 -95.5t-123.5 -36q-32 0 -58.5 10t-45.5 25.5t-34.5 42t-25 49.5t-16 59t-10 60.5t-5.5 63.5t-2 58.5zM242 1028 q0 33 65.5 105.5t139.5 131.5t100 64q43 7 74.5 -18t17.5 -74q-8 -35 -172.5 -137.5t-196.5 -102.5q-17 0 -22.5 7t-5.5 24z" />
<glyph unicode="&#xfb;" d="M84 333.5v53.5q0 271 41 369q5 20 23 36.5t42 16.5q29 0 45.5 -20.5t16.5 -47.5q0 -47 -7 -181t-7 -204q0 -81 19.5 -154t53.5 -73q52 0 95.5 51.5t70 128.5t51.5 167t43 167t42 128.5t51 51.5q52 0 71 -32t19 -91q0 -14 -3 -74.5t-3 -103.5q0 -383 147 -383q31 0 56 16 t32 17q17 6 31 -6.5t14 -26.5q0 -63 -57.5 -94t-128.5 -31q-51 0 -91 23t-63 57.5t-37.5 81.5t-19.5 87t-6 81q-20 -66 -49 -127t-71 -120.5t-100.5 -95.5t-123.5 -36q-32 0 -58.5 10t-45.5 25.5t-34.5 42t-25 49.5t-16 59t-10 60.5t-5.5 63.5t-2 58.5zM168 1038 q0 42 54.5 132.5t121 164.5t96.5 74q36 0 97.5 -83.5t106 -172t44.5 -111.5q0 -30 -8.5 -40.5t-32.5 -10.5q-19 0 -75 54.5t-102 108.5l-46 54q-170 -207 -205 -219q-22 -7 -36.5 7t-14.5 42z" />
<glyph unicode="&#xfc;" d="M84 333.5v53.5q0 271 41 369q5 20 23 36.5t42 16.5q29 0 45.5 -20.5t16.5 -47.5q0 -47 -7 -181t-7 -204q0 -81 19.5 -154t53.5 -73q52 0 95.5 51.5t70 128.5t51.5 167t43 167t42 128.5t51 51.5q52 0 71 -32t19 -91q0 -14 -3 -74.5t-3 -103.5q0 -383 147 -383q31 0 56 16 t32 17q17 6 31 -6.5t14 -26.5q0 -63 -57.5 -94t-128.5 -31q-51 0 -91 23t-63 57.5t-37.5 81.5t-19.5 87t-6 81q-20 -66 -49 -127t-71 -120.5t-100.5 -95.5t-123.5 -36q-32 0 -58.5 10t-45.5 25.5t-34.5 42t-25 49.5t-16 59t-10 60.5t-5.5 63.5t-2 58.5zM117 1153q0 51 38 87 t89 36q50 0 81 -34t31 -83t-33.5 -94t-78.5 -45q-44 0 -85.5 45t-41.5 88zM487 1153q0 59 32.5 95t84.5 36q58 0 91.5 -42t33.5 -99q0 -121 -111 -121q-58 0 -94.5 36t-36.5 95z" />
<glyph unicode="&#xfd;" horiz-adv-x="817" d="M31 797q-8 31 16.5 51t48.5 20q42 -1 67 -38.5t56 -133.5q25 -81 92.5 -234t120.5 -231q39 83 73.5 185t70 220t55.5 177q9 29 57 29q36 -2 55.5 -22t18.5 -56q-4 -60 -35.5 -182t-61.5 -214l-30 -92q-180 -488 -381 -718q-37 -37 -88 -37q-32 3 -49.5 26t-14.5 50 q0 24 18.5 53.5t45.5 52.5q46 55 83 115.5t58.5 105t65.5 142.5q-79 76 -156 227t-121 280t-65 224zM268 1028q0 33 65.5 105.5t139.5 131.5t100 64q44 7 76 -18t19 -74q-11 -35 -174.5 -137.5t-194.5 -102.5q-19 0 -25 7t-6 24z" />
<glyph unicode="&#xfe;" horiz-adv-x="956" d="M43 1245q-3 31 11.5 55.5t47.5 24.5q22 3 36 -2.5t23 -24.5t12 -30.5t9 -44.5q4 -19 31.5 -350.5t24.5 -348.5q28 92 75 166t100 118t105 66.5t98 22.5q72 3 127 -26.5t85.5 -75.5t48.5 -104t22 -107.5t0 -91.5q-20 -157 -127.5 -259.5t-249.5 -105.5q-58 -4 -119 8.5 t-106 34.5q-2 -41 -2 -127q0 -65 2 -183t2 -163q0 -122 -16 -160q-6 -19 -27 -34t-43 -17q-31 -7 -51.5 9.5t-20.5 47.5q-2 43 -2 140v139q-5 156 -42 717.5t-54 705.5zM305 307q119 -39 197 -39q101 0 166.5 57t68.5 189q1 28 -0.5 52t-9.5 58t-23.5 57.5t-45.5 40 t-72 15.5q-169 -6 -281 -430z" />
<glyph unicode="&#xff;" horiz-adv-x="817" d="M31 797q-8 31 16.5 51t48.5 20q42 -1 67 -38.5t56 -133.5q25 -81 92.5 -234t120.5 -231q39 83 73.5 185t70 220t55.5 177q9 29 57 29q36 -2 55.5 -22t18.5 -56q-4 -60 -35.5 -182t-61.5 -214l-30 -92q-180 -488 -381 -718q-37 -37 -88 -37q-32 3 -49.5 26t-14.5 50 q0 24 18.5 53.5t45.5 52.5q46 55 83 115.5t58.5 105t65.5 142.5q-79 76 -156 227t-121 280t-65 224zM125 1153q0 51 38 87t89 36q50 0 82.5 -34.5t32.5 -82.5q0 -49 -34 -94t-81 -45q-44 0 -85.5 45t-41.5 88zM496 1153q0 59 32.5 95t87.5 36q54 0 87.5 -42.5t33.5 -98.5 q0 -121 -110 -121q-60 0 -95.5 36t-35.5 95z" />
<glyph unicode="&#x178;" horiz-adv-x="823" d="M-49 1159q-10 30 4 58t51 28q55 0 90 -51q36 -50 126.5 -208t139.5 -224q20 81 55.5 179t85 200.5t104.5 186.5t118 138t119 54q34 0 35 -36.5t-25 -70.5q-159 -242 -241 -423t-111 -363q-15 -123 -15 -256q0 -82 7.5 -293t7.5 -346q0 -34 -16 -61t-54 -27q-81 0 -88 90 q-32 268 -41 446q0 12 -2 69t-3.5 81t-6 67.5t-10.5 77.5q-13 86 -55.5 181.5t-88.5 168t-101 167.5t-85 167zM-27 1536q0 52 40 88.5t89 36.5q52 0 84.5 -34.5t32.5 -86.5q0 -48 -34.5 -93.5t-82.5 -45.5q-42 0 -85.5 46.5t-43.5 88.5zM348 1536q0 59 32 95t87 36 q57 0 91 -43.5t34 -99.5q0 -119 -113 -119q-60 0 -95.5 36t-35.5 95z" />
<glyph unicode="&#x2c6;" horiz-adv-x="782" d="M137 1038q0 42 55.5 132.5t122.5 164.5t97 74q36 0 97 -83.5t105.5 -172.5t44.5 -111q0 -30 -9 -40.5t-32 -10.5q-19 0 -75.5 54.5t-102.5 108.5l-47 54q-170 -207 -205 -219q-19 -8 -35 7t-16 42z" />
<glyph unicode="&#x2dc;" horiz-adv-x="864" d="M98 1114q0 34 14.5 72.5t40.5 73.5t70 58t96 23q45 0 82 -16t56.5 -35t44.5 -47q5 -7 8 -10q39 -59 76 -59q26 0 44.5 20t24.5 55q1 3 2 11t1.5 11.5t2 10.5t3 10t3.5 8t4 7.5t5 6t7 5t9 2.5q31 4 52.5 -11.5t21.5 -54.5q0 -104 -48.5 -161.5t-144.5 -57.5 q-31 0 -56.5 7.5t-47.5 26t-33 30t-33 37.5q-1 1 -9.5 11t-10 12t-8.5 10t-10 10t-10 8t-11.5 8t-11 5t-13.5 4t-14 1q-27 0 -49 -26t-35 -66q-9 -72 -53 -72q-34 0 -52 16.5t-18 55.5z" />
<glyph unicode="&#x2000;" horiz-adv-x="930" />
<glyph unicode="&#x2001;" horiz-adv-x="1860" />
<glyph unicode="&#x2002;" horiz-adv-x="930" />
<glyph unicode="&#x2003;" horiz-adv-x="1860" />
<glyph unicode="&#x2004;" horiz-adv-x="620" />
<glyph unicode="&#x2005;" horiz-adv-x="465" />
<glyph unicode="&#x2006;" horiz-adv-x="310" />
<glyph unicode="&#x2007;" horiz-adv-x="310" />
<glyph unicode="&#x2008;" horiz-adv-x="232" />
<glyph unicode="&#x2009;" horiz-adv-x="372" />
<glyph unicode="&#x200a;" horiz-adv-x="103" />
<glyph unicode="&#x2010;" horiz-adv-x="741" d="M137 602q0 35 16.5 54.5t45.5 19.5l276 24q56 0 92.5 -22t36.5 -68q0 -65 -78 -71q-46 2 -132.5 -17.5t-127.5 -19.5q-54 0 -91.5 27.5t-37.5 72.5z" />
<glyph unicode="&#x2011;" horiz-adv-x="741" d="M137 602q0 35 16.5 54.5t45.5 19.5l276 24q56 0 92.5 -22t36.5 -68q0 -65 -78 -71q-46 2 -132.5 -17.5t-127.5 -19.5q-54 0 -91.5 27.5t-37.5 72.5z" />
<glyph unicode="&#x2012;" horiz-adv-x="741" d="M137 602q0 35 16.5 54.5t45.5 19.5l276 24q56 0 92.5 -22t36.5 -68q0 -65 -78 -71q-46 2 -132.5 -17.5t-127.5 -19.5q-54 0 -91.5 27.5t-37.5 72.5z" />
<glyph unicode="&#x2013;" horiz-adv-x="1142" d="M82 668q0 73 143 73q130 0 356.5 11.5t340.5 11.5q61 0 101 -22.5t40 -67.5q0 -34 -18.5 -56.5t-50.5 -31t-58 -11.5t-57 -4h-11q-102 -4 -182 -4q-247 0 -508 15q-39 3 -67.5 27.5t-28.5 58.5z" />
<glyph unicode="&#x2014;" horiz-adv-x="1398" d="M82 668q0 73 143 73q130 0 485.5 11.5t469.5 11.5q61 0 99 -22.5t38 -67.5q0 -34 -18.5 -56.5t-50 -31t-57 -11.5t-56.5 -4h-3.5h-3.5h-4q-102 -4 -233 -4q-452 0 -713 15q-39 3 -67.5 27.5t-28.5 58.5z" />
<glyph unicode="&#x2018;" horiz-adv-x="479" d="M109 1034q0 46 18.5 115.5t58.5 131.5t88 62q39 0 60.5 -21t21.5 -60q0 -27 -22 -68t-44 -90.5t-22 -97.5q0 -28 16 -48.5t35.5 -31t35.5 -29.5t16 -45q0 -31 -22 -50.5t-54 -19.5q-79 0 -132.5 84.5t-53.5 167.5z" />
<glyph unicode="&#x2019;" horiz-adv-x="524" d="M109 1266q0 41 29 59t71 18q96 0 151.5 -78.5t55.5 -179.5q0 -38 -11 -87.5t-31.5 -99t-56.5 -83t-79 -33.5q-24 0 -48 20.5t-24 41.5t12.5 41t31 38.5t36.5 38.5t30.5 49.5t12.5 63.5q0 43 -18.5 68t-45 34.5t-53 17t-45 24t-18.5 47.5z" />
<glyph unicode="&#x201a;" horiz-adv-x="524" d="M109 195q0 38 29 55.5t71 17.5q96 0 151.5 -79.5t55.5 -180.5q0 -37 -11 -86t-31.5 -99.5t-56.5 -85t-79 -34.5q-24 0 -48 21t-24 45q0 21 12.5 40t31 36.5t36.5 37t30.5 50t12.5 67.5q0 43 -18.5 68t-45 34.5t-53 17.5t-45 26t-18.5 49z" />
<glyph unicode="&#x201c;" horiz-adv-x="839" d="M109 1034q0 46 18.5 115.5t58.5 131.5t88 62q39 0 60.5 -21t21.5 -60q0 -27 -22 -68t-44 -90.5t-22 -97.5q0 -28 16 -48.5t35.5 -31t35.5 -29.5t16 -45q0 -31 -22 -50.5t-54 -19.5q-79 0 -132.5 84.5t-53.5 167.5zM420 1047q0 39 11 89.5t31.5 101.5t57 85.5t80.5 34.5 q23 0 47.5 -22t24.5 -44q0 -25 -19 -54.5t-42.5 -52.5t-42.5 -56.5t-19 -65.5q0 -44 18.5 -70t44.5 -35.5t52 -17t44.5 -25t18.5 -49.5q0 -38 -28.5 -56.5t-69.5 -18.5q-97 0 -153 79t-56 177z" />
<glyph unicode="&#x201d;" horiz-adv-x="839" d="M109 1266q0 41 29 59t71 18q96 0 151.5 -78.5t55.5 -179.5q0 -90 -36.5 -170t-107.5 -122q-18 -11 -34 -11q-24 0 -48 20.5t-24 41.5q0 25 19 54.5t42.5 53.5t42.5 57.5t19 65.5q0 43 -18.5 68t-45 34.5t-53 17t-45 24t-18.5 47.5zM467 1282q0 35 21.5 55.5t54.5 20.5 q51 0 95 -44.5t66.5 -103.5t22.5 -110q0 -73 -39.5 -168.5t-95.5 -132.5q-8 -8 -37 -8q-35 0 -57.5 21t-22.5 58q0 28 23.5 69.5t47 90.5t23.5 96q0 28 -16 49.5t-35 32.5t-35 30t-16 44z" />
<glyph unicode="&#x201e;" horiz-adv-x="839" d="M109 195q0 38 29 55.5t71 17.5q96 0 151.5 -79.5t55.5 -180.5q0 -37 -11 -86t-31.5 -99.5t-56.5 -85t-79 -34.5q-24 0 -48 21t-24 45q0 8 12 36q111 111 111 195q0 43 -18.5 68t-45 34.5t-53 17.5t-45 26t-18.5 49zM467 209q0 31 21.5 49t54.5 18q51 0 95 -43t66.5 -99.5 t22.5 -104.5q0 -47 -19 -117t-61 -132.5t-92 -62.5q-35 0 -57.5 21t-22.5 61q0 27 23.5 67.5t47 89t23.5 95.5q0 27 -16 48t-35 32.5t-35 31.5t-16 46z" />
<glyph unicode="&#x2022;" horiz-adv-x="737" d="M82 571q0 49 25.5 107t65.5 107.5t94 82.5t106 33q129 0 205.5 -84t76.5 -213q0 -74 -28 -142.5t-87 -116.5t-137 -48q-68 0 -142 36t-126.5 101t-52.5 137z" />
<glyph unicode="&#x2026;" horiz-adv-x="1220" d="M109 141q0 49 26 90t74 41q56 0 93.5 -50.5t37.5 -106.5q0 -48 -29 -81.5t-73 -33.5q-56 0 -92.5 43t-36.5 98zM520 141q0 50 25 90.5t73 40.5q55 0 92.5 -50.5t37.5 -106.5q0 -48 -29.5 -81.5t-73.5 -33.5q-55 0 -90 43t-35 98zM885 141q0 51 24.5 91t73.5 40 q56 0 93.5 -50.5t37.5 -106.5q0 -48 -30 -81.5t-76 -33.5q-53 0 -88 43t-35 98z" />
<glyph unicode="&#x202f;" horiz-adv-x="372" />
<glyph unicode="&#x2039;" horiz-adv-x="718" d="M82 377q0 66 51.5 165t139 226t100.5 150q13 32 51 32q46 -3 73.5 -34.5t24.5 -75.5q0 -29 -22.5 -67.5t-54.5 -78.5t-64.5 -82.5t-55.5 -93.5t-24 -98t33.5 -95t84 -86.5t99 -72.5t84 -64.5t33.5 -50.5q0 -33 -24 -57t-56 -21q-28 0 -61.5 13.5t-55.5 27t-56.5 38.5 t-45.5 32q-47 32 -101.5 80.5t-103 110t-49.5 102.5z" />
<glyph unicode="&#x203a;" horiz-adv-x="718" d="M84 885q0 29 24.5 52.5t55.5 20.5q13 0 26.5 -2t27.5 -7t25 -9.5t26.5 -13.5t24 -13.5t25 -16.5t22 -15.5t22 -16t18.5 -14.5q47 -30 102.5 -79t104 -111.5t49.5 -104.5q0 -50 -36.5 -129t-79.5 -145.5t-98.5 -149t-74.5 -115.5q-21 -32 -51 -32q-49 6 -77 38t-23 76 q0 28 22.5 66t54.5 78t64.5 82.5t55.5 93t24 96.5q2 47 -32.5 96t-84 87.5t-99.5 73t-84.5 64.5t-33.5 50z" />
<glyph unicode="&#x205f;" horiz-adv-x="465" />
<glyph unicode="&#x20ac;" horiz-adv-x="1026" d="M32.5 465q5.5 26 18.5 35q7 5 21.5 8t28.5 5t35 2.5t33.5 0.5h32.5h23q11 66 19 121l-78 -2q-39 0 -113 4q-18 9 -20 33q-5 22 3 35.5t19 17.5q121 35 209 41q22 114 50 211.5t67.5 186.5t93 140.5t115.5 51.5q79 0 158 -65t126.5 -158t47.5 -177q0 -90 -76 -90 q-30 0 -54 10.5t-24 34.5q0 94 -56.5 163t-129.5 69q-40 0 -74 -56.5t-55 -134.5t-37 -178q12 0 44 2t52 2q117 0 227 -12q12 0 16.5 -3.5t4.5 -14.5q7 -23 0.5 -48.5t-23.5 -35.5q-28 -17 -184 -17q-101 0 -154 -2q-9 -72 -12 -125q153 6 162 6q51 0 86 -2q14 -3 20 -28 q8 -24 -1.5 -39t-22.5 -17q-81 -33 -250 -47q0 -272 160 -272q45 0 91 11t82.5 28t72 36.5t63 36t50.5 27t39 9.5t24 -17q13 -24 -5 -62.5t-62.5 -78.5t-103 -76t-134 -59t-148.5 -23q-61 0 -111 22.5t-83.5 60t-56 87.5t-32.5 103.5t-10 109.5v51q-97 0 -168 12 q-16 0 -16 17q-6 23 -0.5 49z" />
<glyph unicode="&#x2122;" horiz-adv-x="1538" d="M55 1221q0 22 15.5 39.5t38.5 21.5q249 39 485 39q80 0 86 -45q5 -12 -3.5 -25t-25.5 -16q-27 -14 -103.5 -27.5t-101.5 -21.5q-16 -98 -16 -174q0 -124 33 -293q0 -47 -70 -47q-17 0 -32 11t-21 28q-19 48 -28 123.5t-10 129.5t-1 199q-119 -26 -160 -26q-39 3 -63 24.5 t-23 59.5zM684 727q7 35 21.5 129.5t29 174t35.5 163.5t51 131.5t66 44.5q13 -1 26 -5.5t22.5 -11t20 -19t17 -21.5t15 -27t13 -27.5t11.5 -30t9.5 -28.5t9 -29.5t7.5 -25.5q3 -7 7 -18t6.5 -17t6 -14t6 -12.5t6 -8.5t6.5 -6t7 -2q10 0 22.5 30t28 72t35 83.5t50 69 t65.5 24.5q57 0 74 -46q5 -15 21.5 -68.5t24.5 -80t23 -77.5t23 -84t17.5 -74t13.5 -73.5t4 -58.5q0 -18 -23 -22q-12 -2 -30 4q-26 16 -65.5 115.5t-72.5 190.5t-45 91q-5 0 -11 -9t-12.5 -26.5t-12.5 -37t-13.5 -47t-13 -50.5t-12 -53.5t-10.5 -49.5t-9.5 -45t-7.5 -34 q-5 -31 -25 -53.5t-51 -22.5q-26 0 -46 17.5t-28 40.5q-6 16 -20 108t-31.5 166t-36.5 74q-27 0 -46 -128.5t-19 -256.5q-1 -31 -2.5 -46.5t-8 -38.5t-21.5 -33.5t-38 -10.5q-106 14 -90 100z" />
<glyph unicode="&#xe000;" horiz-adv-x="880" d="M0 0v881h881v-881h-881z" />
</font>
</defs>
</svg>
